<?xml version="1.0" standalone="no"?> <!DOCTYPE svg PUBLIC "-//W3C//DTD SVG 1.0//EN" "http://www.w3.org/TR/2001/REC-SVG-20010904/DTD/svg10.dtd" > <svg xmlns="http://www.w3.org/2000/svg" width="100%" height="100%">
<defs >
<font horiz-adv-x="541" ><font-face
    font-family=""
    units-per-em="1000"
    panose-1="2 11 6 3 3 2 2 6 2 3"
    ascent="821"
    descent="-179"
    alphabetic="0" />
<missing-glyph horiz-adv-x="512" />
<glyph unicode=" " glyph-name="space" horiz-adv-x="242" />
<glyph unicode="!" glyph-name="exclam" horiz-adv-x="309" d="M152 -7Q119 -7 96 15T72 70Q72 103 95 125T152 148Q186 148 209 126T233 70Q233 38 210 16T152 -7ZM86 715H221L202 215H104L86 715Z" />
<glyph unicode="&quot;" glyph-name="quotedbl" horiz-adv-x="413" d="M53 715H174L157 458H70L53 715ZM235 715H356L339 458H253L235 715Z" />
<glyph unicode="#" glyph-name="numbersign" horiz-adv-x="536" d="M283 266H200L176 99H87L111 266H34V364H126L142 474H60V569H156L178 715H266L245 569H328L350 715H439L417 569H498V474H403L387 364H472V266H372L348 99H259L283 266ZM215 364H298L314 474H231L215
364Z" />
<glyph unicode="$" glyph-name="dollar" horiz-adv-x="639" d="M286 -9Q222 -5 177 14T101 65T56 136T37 221H161Q164 197 170 175T191 136T227 106T286 89V314Q230 323 188 338T118 378T76 437T61 520Q61 562 77 597T122 660T193 703T286 723V813H353V722Q450
713 507 663T574 519H456Q448 565 424 591T353 625V420Q408 411 451 396T525 357T571 298T587 211Q587 167 571 129T525 61T452 14T353 -9V-135H286V-9ZM464 199Q464 220 459 236T441 265T407 287T353 303V89Q404 96 434 125T464 199ZM179 531Q179 511 183 496T199
468T232 447T286 431V628Q234 622 207 596T179 531Z" />
<glyph unicode="%" glyph-name="percent" horiz-adv-x="805" d="M205 456Q240 456 260 480T281 549Q281 593 261 617T205 642Q170 642 149 618T128 549Q128 503 149 480T205 456ZM204 375Q167 375 136 388T81 424T44 479T30 548Q30 585 44 617T81 672T137 709T205
722Q241 722 272 709T327 674T364 619T378 550Q378 512 365 480T328 425T273 388T204 375ZM589 715H673L213 0H128L589 715ZM597 71Q632 71 652 95T673 164Q673 208 653 232T597 257Q562 257 541 233T520 164Q520 118 541 95T597 71ZM596 -10Q559 -10 528 3T473
39T436 94T423 163Q423 200 436 232T474 287T529 324T597 337Q633 337 664 324T720 289T757 234T771 165Q771 127 758 95T721 40T665 3T596 -10Z" />
<glyph unicode="&amp;" glyph-name="ampersand" horiz-adv-x="720" d="M568 146L688 0H535L475 73Q441 38 395 15T279 -9Q227 -9 184 5T109 46T61 110T44 195Q44 234 55 266T88 323T139 369T205 407Q149 481 149 548Q149 590 165 622T208 677T271 710T346 721Q383
721 415 711T472 680T511 631T526 566Q526 503 487 459T377 384L503 230L576 370H685L568 146ZM293 91Q363 91 413 150L261 335Q221 315 196 287T170 208Q170 154 202 123T293 91ZM267 547Q267 522 281 498T321 442Q372 465 394 492T416 561Q416 592 397 612T346
632Q313 632 290 611T267 547Z" />
<glyph unicode="&apos;" glyph-name="quotesingle" horiz-adv-x="233" d="M53 715H176L159 458H70L53 715Z" />
<glyph unicode="(" glyph-name="parenleft" horiz-adv-x="339" d="M213 -148Q181 -110 151 -63T98 42T61 167T47 313Q47 391 61 458T98 583T151 688T213 774H319Q289 733 262 686T213 581T180 458T167 313Q167 235 179 169T213 45T261 -60T319 -148H213V-148Z" />
<glyph unicode=")" glyph-name="parenright" horiz-adv-x="339" d="M17 -148Q47 -108 74 -60T122 45T155 168T168 313Q168 391 156 457T123 581T75 685T17 774H122Q154 736 184 689T237 584T274 459T288 313Q288 235 274 168T237 43T184 -62T122 -148H17V-148Z" />
<glyph unicode="*" glyph-name="asterisk" horiz-adv-x="433" d="M72 449L157 551L37 574L64 663L178 613L165 743H265L252 613L366 663L392 574L271 551L356 449L280 394L213 512L149 394L72 449Z" />
<glyph unicode="+" glyph-name="plus" horiz-adv-x="543" d="M219 294H37V388H219V586H320V388H503V294H320V96H219V294Z" />
<glyph unicode="," glyph-name="comma" horiz-adv-x="296" d="M28 -90L119 147L234 101L103 -123L28 -90Z" />
<glyph unicode="-" glyph-name="hyphen" horiz-adv-x="357" d="M56 329H296V229H56V329Z" />
<glyph unicode="." glyph-name="period" horiz-adv-x="293" d="M144 -7Q111 -7 88 15T65 71Q65 104 88 127T144 150Q178 150 201 127T224 71Q224 38 201 16T144 -7Z" />
<glyph unicode="/" glyph-name="slash" horiz-adv-x="419" d="M295 776H398L96 -148H-6L295 776Z" />
<glyph unicode="0" glyph-name="zero" horiz-adv-x="705" d="M354 96Q437 96 477 158T517 342V377Q517 492 475 556T352 621Q271 621 228 559T185 376V340Q185 218 229 157T354 96ZM351 -10Q283 -10 228 14T133 84T73 193T51 339V375Q51 456 72 521T133 631T228
701T351 725Q419 725 474 701T568 632T628 523T650 378V342Q650 261 630 196T571 86T477 15T351 -10Z" />
<glyph unicode="1" glyph-name="one" horiz-adv-x="423" d="M183 583L32 480V597L198 715H317V0H183V583Z" />
<glyph unicode="2" glyph-name="two" horiz-adv-x="582" d="M15 24L285 309Q336 363 365 412T394 512Q394 563 367 592T287 621Q233 621 201 588T159 479H37Q44 597 110 661T291 725Q346 725 390 710T464 667T511 600T527 514Q527 444 489 382T387 258L228 103H532V0H15V24Z"
/>
<glyph unicode="3" glyph-name="three" horiz-adv-x="627" d="M304 -10Q240 -10 191 7T108 54T56 127T35 221H156Q161 165 195 128T301 90Q371 90 404 121T437 206Q437 323 308 323H253V418H304Q366 418 394 445T423 523Q423 567 396 595T312 624Q255 624 220
592T179 506H61Q64 552 82 592T132 662T211 708T314 725Q370 725 414 710T488 669T534 608T550 533Q550 472 518 435T434 377Q497 363 534 320T572 204Q572 154 553 115T500 48T415 5T304 -10Z" />
<glyph unicode="4" glyph-name="four" horiz-adv-x="645" d="M385 145H31V192L347 715H514V244H610V145H514V0H385V145ZM387 244V614L173 244H387Z" />
<glyph unicode="5" glyph-name="five" horiz-adv-x="608" d="M291 -10Q228 -10 182 6T104 51T56 119T36 205H160Q164 180 172 160T194 124T232 101T290 93Q352 93 385 132T419 238Q419 303 385 341T290 379Q235 379 200 362T141 317H73L79 715H513V610H181L180
416Q201 440 239 458T334 476Q382 476 422 460T492 412T538 337T554 236Q554 179 535 134T480 56T397 7T291 -10Z" />
<glyph unicode="6" glyph-name="six" horiz-adv-x="645" d="M331 -10Q253 -10 200 16T113 87T66 193T51 325V342Q51 435 73 506T134 626T228 700T347 725Q445 725 506 678T580 536H456Q446 577 422 599T346 622Q274 622 230 560T183 374Q208 416 252 441T360 466Q411
466 454 449T529 402T577 328T595 233Q595 179 577 134T524 57T441 8T331 -10ZM329 88Q389 88 426 127T463 230Q463 295 427 334T329 374Q299 374 274 364T230 336T201 293T191 238Q191 166 229 127T329 88Z" />
<glyph unicode="7" glyph-name="seven" horiz-adv-x="549" d="M362 607H29V715H529V699L269 0H132L362 607Z" />
<glyph unicode="8" glyph-name="eight" horiz-adv-x="631" d="M314 -10Q261 -10 213 3T127 43T68 109T46 202Q46 271 83 317T180 384Q130 404 102 441T74 533Q74 578 94 614T147 674T224 712T314 725Q362 725 405 712T481 675T533 615T553 535Q553 480 524 443T447
385Q510 362 545 317T580 206Q580 153 559 113T501 45T417 4T314 -10ZM314 90Q371 90 409 122T447 214Q447 244 437 266T409 304T367 328T315 336Q288 336 264 328T221 305T191 266T180 213Q180 183 191 160T220 122T262 98T314 90ZM316 423Q365 423 396 450T427
527Q427 573 395 601T314 629Q266 629 234 602T201 526Q201 502 210 483T235 450T272 430T316 423Z" />
<glyph unicode="9" glyph-name="nine" horiz-adv-x="646" d="M302 -9Q192 -9 129 42T52 186H177Q187 144 214 119T300 94Q377 94 417 155T459 339Q434 298 391 274T283 249Q231 249 188 265T113 312T64 385T46 481Q46 536 64 581T117 658T201 708T311 726Q381
726 433 703T520 637T572 533T590 394V357Q590 180 516 86T302 -9ZM311 342Q372 342 410 378T449 475Q449 547 411 587T310 627Q250 627 214 588T177 485Q177 420 213 381T311 342Z" />
<glyph unicode=":" glyph-name="colon" horiz-adv-x="301" d="M148 -7Q115 -7 92 15T69 71Q69 104 92 127T148 150Q182 150 205 127T228 71Q228 38 205 16T148 -7ZM148 285Q115 285 92 308T69 364Q69 397 92 419T148 442Q182 442 205 420T228 364Q228 331 205
308T148 285Z" />
<glyph unicode=";" glyph-name="semicolon" horiz-adv-x="307" d="M17 -90L108 147L222 101L91 -123L17 -90ZM163 285Q129 285 106 308T83 364Q83 397 106 419T163 442Q196 442 219 420T243 364Q243 331 220 308T163 285Z" />
<glyph unicode="&lt;" glyph-name="less" horiz-adv-x="511" d="M49 309V335L447 563V451L213 323L447 192V81L49 309Z" />
<glyph unicode="=" glyph-name="equal" horiz-adv-x="517" d="M39 276H473V185H39V276ZM39 463H473V371H39V463Z" />
<glyph unicode="&gt;" glyph-name="greater" horiz-adv-x="511" d="M60 194L294 322L60 453V564L459 335V310L60 81V194Z" />
<glyph unicode="?" glyph-name="question" horiz-adv-x="520" d="M175 253Q175 283 184 307T207 352T240 391T276 428Q304 456 325 482T346 541Q346 579 325 602T257 625Q210 625 180 595T145 512H29Q32 561 50 600T98 667T171 710T263 725Q317 725 356 712T422
674T460 618T473 550Q473 523 466 501T446 460T418 423T385 389Q367 372 350 356T320 322T297 287T287 247V215H175V253ZM230 -7Q196 -7 172 15T148 70Q148 103 172 125T230 148Q263 148 286 126T310 70Q310 38 287 16T230 -7Z" />
<glyph unicode="@" glyph-name="at" horiz-adv-x="921" d="M460 -151Q359 -151 281 -118T149 -29T67 101T39 257Q39 351 74 430T170 567T309 657T475 689Q564 689 638 662T766 586T849 470T879 324Q879 252 861 202T813 121T749 75T680 61Q617 61 589 83T552 145Q531
106 494 81T409 56Q335 56 291 103T247 235Q247 286 262 329T304 403T367 451T444 468Q495 468 522 449T561 403L568 460H676L645 200Q634 126 691 126Q712 126 732 137T768 172T793 233T803 323Q803 390 781 445T716 539T613 600T475 622Q399 622 334 596T221
521T146 406T119 257Q119 188 140 126T205 18T312 -56T461 -84Q546 -84 604 -61T705 0H788Q767 -34 734 -61T658 -109T565 -140T460 -151ZM439 141Q460 141 479 150T514 179T538 224T548 286Q548 334 525 358T459 382Q417 382 388 344T358 238Q358 193 380 167T439
141Z" />
<glyph unicode="A" glyph-name="A" horiz-adv-x="707" d="M266 715H440L676 0H538L481 177H208L152 0H27L266 715ZM239 274H450L345 606L239 274Z" />
<glyph unicode="B" glyph-name="B" horiz-adv-x="649" d="M82 715H338Q449 715 510 671T572 529V525Q572 471 546 432T459 373Q532 357 567 317T602 204V200Q602 100 539 50T357 0H82V715ZM341 95Q408 95 439 124T471 209V213Q471 269 439 296T332 324H212V95H341ZM322
414Q388 414 416 439T444 519V523Q444 574 414 597T320 620H212V414H322Z" />
<glyph unicode="C" glyph-name="C" horiz-adv-x="745" d="M395 -10Q311 -10 246 16T137 89T69 203T46 353V361Q46 442 72 509T144 624T254 699T393 726Q454 726 507 711T602 664T668 586T700 476H565Q554 548 513 584T394 620Q347 620 309 602T243 551T201 470T186
362V354Q186 233 240 166T395 98Q470 98 518 135T578 249H708Q700 184 674 136T608 55T513 7T395 -10Z" />
<glyph unicode="D" glyph-name="D" horiz-adv-x="718" d="M293 105Q414 105 472 170T530 355V363Q530 421 517 466T474 544T400 593T292 610H215V105H293ZM82 715H299Q392 715 461 690T577 618T646 508T669 365V356Q669 278 646 213T577 100T461 27T297 0H82V715Z" />
<glyph unicode="E" glyph-name="E" horiz-adv-x="588" d="M82 715H529V610H215V414H467V314H215V105H546V0H82V715Z" />
<glyph unicode="F" glyph-name="F" horiz-adv-x="563" d="M82 715H525V609H215V396H459V293H215V0H82V715Z" />
<glyph unicode="G" glyph-name="G" horiz-adv-x="779" d="M403 -10Q317 -10 251 17T139 92T70 207T46 353V361Q46 441 72 508T146 623T259 699T403 726Q460 726 513 713T607 670T676 595T711 485H578Q566 557 521 589T405 621Q352 621 311 603T242 550T199 467T184
360V352Q184 295 197 248T238 166T307 113T405 94Q455 94 491 108T550 146T584 204T598 274H418V374H729V308Q729 234 707 175T642 75T540 12T403 -10Z" />
<glyph unicode="H" glyph-name="H" horiz-adv-x="755" d="M82 715H215V411H536V715H670V0H536V304H215V0H82V715Z" />
<glyph unicode="I" glyph-name="I" horiz-adv-x="311" d="M86 715H220V0H86V715Z" />
<glyph unicode="J" glyph-name="J" horiz-adv-x="447" d="M148 -9Q103 -9 78 -3T36 12V116Q55 108 75 103T128 98Q177 98 206 126T235 220V715H369V217Q369 159 353 117T308 46T238 5T148 -9Z" />
<glyph unicode="K" glyph-name="K" horiz-adv-x="663" d="M82 715H215V391L489 716H632L336 374L647 0H490L215 334V0H82V715Z" />
<glyph unicode="L" glyph-name="L" horiz-adv-x="555" d="M82 715H215V106H520V0H82V715Z" />
<glyph unicode="M" glyph-name="M" horiz-adv-x="894" d="M82 715H260L448 227L632 715H808V0H675V540L462 0H419L202 540V0H82V715Z" />
<glyph unicode="N" glyph-name="N" horiz-adv-x="749" d="M82 715H241L542 198V715H663V0H525L203 548V0H82V715Z" />
<glyph unicode="O" glyph-name="O" horiz-adv-x="818" d="M410 97Q461 97 501 115T570 168T614 249T630 355V363Q630 418 615 465T572 546T502 599T408 619Q355 619 314 601T244 548T200 467T185 362V354Q185 295 202 248T249 167T320 115T410 97ZM408 -10Q326
-10 259 17T145 94T72 209T46 353V361Q46 439 72 506T147 621T261 697T408 725Q488 725 554 698T667 623T741 509T768 364V356Q768 278 743 211T670 95T556 18T408 -10Z" />
<glyph unicode="P" glyph-name="P" horiz-adv-x="613" d="M82 715H312Q372 715 421 702T504 661T558 592T577 494V490Q577 433 558 392T504 325T421 285T315 272H215V0H82V715ZM312 368Q378 368 412 399T447 490V494Q447 558 412 585T312 612H215V368H312Z" />
<glyph unicode="Q" glyph-name="Q" horiz-adv-x="818" d="M546 14Q515 3 481 -3T408 -10Q326 -10 259 17T145 94T72 209T46 353V361Q46 439 72 505T147 620T261 696T408 724Q488 724 554 697T668 622T742 508T769 364V356Q769 267 737 195T645 72L724 -13L644
-91L546 14ZM409 95Q439 95 465 101L395 177L476 253L564 158Q596 193 613 243T630 356V364Q630 419 615 466T572 547T502 600T408 619Q355 619 314 601T243 548T199 467T184 362V354Q184 294 201 246T248 165T319 113T409 95Z" />
<glyph unicode="R" glyph-name="R" horiz-adv-x="659" d="M82 715H322Q381 715 430 703T514 665T569 600T589 505V501Q589 459 577 427T543 372T492 333T430 309L631 0H487L300 289H215V0H82V715ZM322 384Q458 384 458 498V502Q458 564 422 588T322 612H215V384H322Z" />
<glyph unicode="S" glyph-name="S" horiz-adv-x="639" d="M325 -10Q252 -10 200 7T113 55T60 128T38 222H166Q169 195 177 171T203 129T250 101T325 90Q385 90 422 120T460 200Q460 225 453 242T429 272T383 294T311 310Q247 319 200 333T121 372T75 433T59 519Q59
563 77 600T127 665T206 708T308 724Q424 724 490 672T568 517H446Q436 574 403 599T308 624Q247 624 216 598T185 530Q185 508 190 492T212 463T257 441T333 425Q396 416 443 402T523 363T572 302T588 211Q588 164 569 124T516 54T433 7T325 -10Z" />
<glyph unicode="T" glyph-name="T" horiz-adv-x="587" d="M225 610H26V715H558V610H359V0H225V610Z" />
<glyph unicode="U" glyph-name="U" horiz-adv-x="727" d="M357 -10Q222 -10 149 61T76 272V715H210V282Q210 183 244 140T358 97Q397 97 426 106T474 138T503 198T513 291V715H647V280Q647 139 574 65T357 -10Z" />
<glyph unicode="V" glyph-name="V" horiz-adv-x="687" d="M23 715H162L348 135L535 715H660L418 0H264L23 715Z" />
<glyph unicode="W" glyph-name="W" horiz-adv-x="959" d="M26 715H162L286 190L425 715H535L677 187L805 715H929L750 0H617L476 521L331 0H204L26 715Z" />
<glyph unicode="X" glyph-name="X" horiz-adv-x="699" d="M266 367L52 715H202L354 461L505 715H642L431 370L660 0H508L340 279L172 0H36L266 367Z" />
<glyph unicode="Y" glyph-name="Y" horiz-adv-x="633" d="M254 310L17 715H164L325 419L482 715H612L388 309V0H254V310Z" />
<glyph unicode="Z" glyph-name="Z" horiz-adv-x="612" d="M22 18L387 610H59V715H575V698L218 107H565V0H22V18Z" />
<glyph unicode="[" glyph-name="bracketleft" horiz-adv-x="381" d="M79 776H335V685H201V-57H335V-148H79V776Z" />
<glyph unicode="\" glyph-name="backslash" horiz-adv-x="419" d="M18 776H120L421 -148H319L18 776Z" />
<glyph unicode="]" glyph-name="bracketright" horiz-adv-x="381" d="M42 -57H176V685H42V776H298V-148H42V-57Z" />
<glyph unicode="^" glyph-name="asciicircum" horiz-adv-x="520" d="M202 715H315L481 402H369L257 615L144 402H36L202 715Z" />
<glyph unicode="_" glyph-name="underscore" horiz-adv-x="414" d="M-1 -85H411V-159H-1V-85Z" />
<glyph unicode="`" glyph-name="grave" horiz-adv-x="404" d="M59 756H193L252 601H163L59 756Z" />
<glyph unicode="a" glyph-name="a" horiz-adv-x="559" d="M209 -10Q173 -10 141 -1T86 26T48 74T34 145Q34 191 55 222T112 273T197 302T302 311H367V338Q367 391 347 417T272 443Q224 443 201 422T172 361H55Q59 407 78 439T127 493T196 524T279 534Q323 534
361 525T427 493T472 434T488 343V0H369V64Q343 30 306 10T209 -10ZM238 77Q294 77 330 104T367 183V235H305Q236 235 195 217T154 150Q154 117 173 97T238 77Z" />
<glyph unicode="b" glyph-name="b" horiz-adv-x="637" d="M364 -10Q301 -10 258 17T193 84V0H72V765H193V439Q204 458 221 475T260 505T309 526T364 534Q413 534 455 516T529 464T578 381T596 268V260Q596 197 579 147T531 62T458 9T364 -10ZM334 86Q401 86 436
129T472 258V266Q472 309 462 341T432 396T388 428T333 439Q270 439 230 397T189 266V258Q189 170 228 128T334 86Z" />
<glyph unicode="c" glyph-name="c" horiz-adv-x="579" d="M301 -10Q245 -10 197 8T113 60T57 143T37 255V263Q37 325 57 375T114 460T198 515T301 534Q344 534 385 524T458 490T513 430T540 338H423Q415 391 383 414T303 437Q272 437 246 426T201 392T172 337T161
265V257Q161 171 200 127T306 83Q330 83 351 90T390 111T418 146T432 195H543Q540 150 522 113T472 48T398 5T301 -10Z" />
<glyph unicode="d" glyph-name="d" horiz-adv-x="637" d="M268 -10Q219 -10 177 7T104 57T56 140T38 253V261Q38 324 55 374T104 460T179 515T273 534Q337 534 377 508T440 443V765H561V0H440V88Q429 68 412 51T373 20T324 -2T268 -10ZM298 86Q361 86 402 128T444
259V267Q444 354 407 396T303 439Q236 439 199 394T162 264V256Q162 170 200 128T298 86Z" />
<glyph unicode="e" glyph-name="e" horiz-adv-x="584" d="M302 -10Q244 -10 196 8T112 61T57 145T37 256V264Q37 325 56 374T111 459T193 514T297 534Q346 534 390 519T469 472T523 390T544 270V235H161Q164 160 200 120T305 80Q360 80 389 101T425 160H542Q529
77 466 34T302 -10ZM424 316Q419 384 387 415T297 446Q242 446 207 412T163 316H424Z" />
<glyph unicode="f" glyph-name="f" horiz-adv-x="366" d="M93 432H22V523H93V593Q93 680 138 725T269 770Q291 770 306 768T338 760V666Q327 670 314 672T283 675Q246 675 230 654T214 598V523H333V432H214V0H93V432Z" />
<glyph unicode="g" glyph-name="g" horiz-adv-x="637" d="M295 -192Q233 -192 188 -179T113 -143T65 -88T43 -18H165Q173 -57 203 -78T294 -100Q365 -100 402 -65T440 41V118Q429 99 412 82T373 51T324 29T269 21Q220 21 178 38T104 88T55 167T37 270V277Q37 332
54 379T103 460T178 514T272 534Q337 534 377 508T440 443V523H561V39Q560 -77 489 -134T295 -192ZM299 114Q362 114 403 156T444 274V281Q444 356 407 397T303 439Q235 439 198 395T161 279V271Q161 235 171 206T200 156T244 125T299 114Z" />
<glyph unicode="h" glyph-name="h" horiz-adv-x="612" d="M72 765H193V440Q212 478 254 506T362 534Q401 534 434 522T491 486T528 422T541 329V0H420V318Q420 378 395 405T316 433Q265 433 229 402T193 308V0H72V765Z" />
<glyph unicode="i" glyph-name="i" horiz-adv-x="275" d="M75 523H196V0H75V523ZM134 609Q104 609 83 629T62 678Q62 708 83 728T134 748Q164 748 185 728T206 678Q206 649 185 629T134 609Z" />
<glyph unicode="j" glyph-name="j" horiz-adv-x="275" d="M3 -95Q43 -92 59 -73T75 -21V523H196V-18Q196 -58 186 -89T154 -142T94 -175T3 -188V-95ZM134 609Q104 609 83 629T62 678Q62 708 83 728T134 748Q164 748 185 728T206 678Q206 649 185 629T134 609Z" />
<glyph unicode="k" glyph-name="k" horiz-adv-x="544" d="M72 765H193V293L380 523H512L309 283L529 0H389L193 257V0H72V765Z" />
<glyph unicode="l" glyph-name="l" horiz-adv-x="275" d="M75 765H196V0H75V765Z" />
<glyph unicode="m" glyph-name="m" horiz-adv-x="922" d="M72 523H193V443Q212 480 253 507T352 534Q403 534 441 512T500 440Q530 489 579 511T677 534Q713 534 744 523T800 487T837 424T851 331V0H730V323Q730 381 706 407T637 433Q614 433 594 426T557 403T532
366T522 313V0H401V323Q401 381 377 407T308 433Q285 433 265 426T228 403T203 366T193 313V0H72V523Z" />
<glyph unicode="n" glyph-name="n" horiz-adv-x="612" d="M72 523H193V440Q212 478 254 506T362 534Q401 534 434 522T491 486T528 422T541 329V0H420V318Q420 378 395 405T316 433Q265 433 229 402T193 308V0H72V523Z" />
<glyph unicode="o" glyph-name="o" horiz-adv-x="615" d="M306 84Q374 84 412 130T450 258V265Q450 346 412 392T306 439Q238 439 200 393T161 266V258Q161 177 199 131T306 84ZM305 -10Q247 -10 198 9T113 63T57 147T37 256V264Q37 325 57 374T114 459T199 514T306
534Q363 534 412 515T497 461T553 376T574 267V259Q574 198 554 149T497 64T412 9T305 -10Z" />
<glyph unicode="p" glyph-name="p" horiz-adv-x="637" d="M72 523H193V439Q204 458 221 475T260 505T309 526T364 534Q413 534 455 516T529 464T578 381T596 268V260Q596 197 579 147T531 62T458 9T364 -10Q301 -10 258 17T193 82V-179H72V523ZM334 86Q401 86
436 129T472 258V266Q472 309 462 341T432 396T388 428T333 439Q270 439 230 397T189 266V258Q189 170 228 128T334 86Z" />
<glyph unicode="q" glyph-name="q" horiz-adv-x="637" d="M440 86Q429 67 412 50T373 20T324 -2T268 -10Q219 -10 177 7T104 57T56 140T38 253V261Q38 324 55 374T104 460T179 515T273 534Q337 534 377 508T440 443V523H561V-179H440V86ZM298 86Q361 86 402 128T444
259V267Q444 354 407 396T303 439Q236 439 199 394T162 264V256Q162 170 200 128T298 86Z" />
<glyph unicode="r" glyph-name="r" horiz-adv-x="401" d="M72 523H193V425Q218 475 257 502T363 531V418Q323 418 292 411T238 386T205 342T193 272V0H72V523Z" />
<glyph unicode="s" glyph-name="s" horiz-adv-x="498" d="M251 -10Q149 -10 93 34T32 163H146Q151 123 173 101T250 79Q299 79 321 96T344 146Q344 178 317 193T232 218Q180 226 144 238T86 269T53 314T43 377Q43 416 60 445T104 494T167 524T239 534Q279 534
314 526T377 500T421 451T444 376H332Q324 412 303 429T239 446Q200 446 178 429T156 384Q156 370 161 360T178 342T212 328T264 317Q310 310 346 300T408 272T446 227T460 157Q460 77 406 34T251 -10Z" />
<glyph unicode="t" glyph-name="t" horiz-adv-x="373" d="M250 -9Q172 -9 132 31T92 146V432H22V523H92V638H213V523H328V432H213V157Q213 122 228 106T273 90Q308 90 332 100V4Q318 -1 298 -5T250 -9Z" />
<glyph unicode="u" glyph-name="u" horiz-adv-x="609" d="M247 -10Q208 -10 175 1T118 37T81 98T67 188V523H188V202Q188 142 213 115T291 87Q315 87 337 95T376 118T403 157T413 212V523H534V0H413V82Q393 44 352 17T247 -10Z" />
<glyph unicode="v" glyph-name="v" horiz-adv-x="561" d="M18 523H148L285 124L420 523H539L350 0H209L18 523Z" />
<glyph unicode="w" glyph-name="w" horiz-adv-x="818" d="M20 523H149L253 145L364 523H465L567 145L676 523H794L630 0H507L410 352L304 0H180L20 523Z" />
<glyph unicode="x" glyph-name="x" horiz-adv-x="560" d="M203 268L33 523H173L282 354L390 523H517L348 277L535 0H394L272 189L147 0H21L203 268Z" />
<glyph unicode="y" glyph-name="y" horiz-adv-x="557" d="M225 53L18 523H149L288 186L416 523H534L249 -179H130L225 53Z" />
<glyph unicode="z" glyph-name="z" horiz-adv-x="497" d="M17 14L294 427H44V523H473V506L197 97H465V0H17V14Z" />
<glyph unicode="{" glyph-name="braceleft" horiz-adv-x="400" d="M354 -148Q227 -148 168 -98T129 69L146 165Q150 186 146 205T130 238T94 262T36 271V358Q71 358 94 367T129 391T146 425T146 464L129 560Q119 619 129 660T168 727T244 765T354 777V688Q320
687 297 681T261 661T245 622T246 561L263 451Q271 397 243 363T163 315Q216 303 243 268T263 179L246 70Q241 33 244 9T261 -30T297 -51T354 -59V-148V-148Z" />
<glyph unicode="|" glyph-name="bar" horiz-adv-x="263" d="M84 776H174V-148H84V776Z" />
<glyph unicode="}" glyph-name="braceright" horiz-adv-x="400" d="M42 -59Q75 -58 98 -52T134 -31T151 8T149 70L133 179Q125 233 152 268T233 315Q180 328 153 362T133 451L149 561Q155 597 152 621T135 660T98 681T42 688V777Q105 777 152 765T228 727T267
660T267 560L250 464Q246 444 249 425T266 391T301 367T359 358V271Q324 271 302 262T266 239T250 205T250 165L267 69Q287 -47 228 -97T42 -148V-59Z" />
<glyph unicode="~" glyph-name="asciitilde" horiz-adv-x="478" d="M38 220Q41 260 52 289T79 338T117 366T160 375Q185 375 206 368T245 351T278 335T305 327Q322 327 335 339T350 377H436Q434 337 423 308T396 260T358 231T316 221Q289 221 268 228T229 245T197
262T169 270Q151 270 139 257T124 220H38V220Z" />
<glyph unicode="&#xa0;" glyph-name="uni00A0" horiz-adv-x="275" />
<glyph unicode="&#xa1;" glyph-name="exclamdown" horiz-adv-x="310" d="M153 605Q186 605 209 583T233 528Q233 495 210 473T153 450Q119 450 96 472T72 528Q72 560 95 582T153 605ZM219 -117H84L103 383H201L219 -117Z" />
<glyph unicode="&#xa2;" glyph-name="cent" horiz-adv-x="581" d="M270 -8Q219 -3 176 17T103 70T55 151T37 256V264Q37 321 55 368T104 449T177 505T270 532V629H337V532Q376 529 412 516T475 480T521 421T545 338H431Q424 383 399 406T337 438V82Q377 90 405
118T439 195H548Q545 153 529 118T485 56T421 13T337 -8V-135H270V-8ZM159 256Q159 182 189 139T270 84V437Q220 425 190 381T159 264V256Z" />
<glyph unicode="&#xa3;" glyph-name="sterling" horiz-adv-x="624" d="M42 389H102Q95 416 91 445T86 509Q86 558 104 598T156 666T233 709T328 724Q384 724 427 709T500 667T546 601T566 515H441Q432 568 408 594T331 621Q281 621 251 590T220 504Q220 472 224
444T233 389H432V304H250Q255 280 257 255T260 202Q260 184 257 169T248 139Q290 128 325 113T388 98Q423 98 444 114T468 173H585Q583 134 571 101T536 43T482 5T410 -9Q375 -9 344 0T286 20T236 41T193 50Q164 50 150 35T134 0H30Q32 22 39 44T58 87T90 122T135
144Q140 157 142 171T145 203Q145 229 140 253T127 304H42V389Z" />
<glyph unicode="&#xa5;" glyph-name="yen" horiz-adv-x="608" d="M76 350H225L21 715H166L313 427L454 715H582L390 350H540V286H374V219H540V155H374V0H242V155H76V219H242V286H76V350Z" />
<glyph unicode="&#xa6;" glyph-name="brokenbar" horiz-adv-x="268" d="M84 299H174V-148H84V299ZM84 776H174V369H84V776Z" />
<glyph unicode="&#xa7;" glyph-name="section" horiz-adv-x="569" d="M276 -137Q184 -137 131 -92T75 34H191Q194 -4 213 -25T277 -47Q320 -47 340 -27T361 26Q361 42 356 54T336 77T297 97T234 115Q189 126 152 140T89 176T48 226T34 295Q34 345 64 379T145 430Q118
452 104 481T90 553Q90 592 106 623T149 677T212 712T289 724Q380 724 431 681T486 557H371Q368 592 351 613T288 634Q244 634 225 613T205 560Q205 543 210 531T228 509T265 490T327 472Q372 461 409 447T474 413T517 364T532 291Q532 245 503 209T422 155Q448
134 462 105T476 33Q476 -4 461 -35T419 -88T356 -124T276 -137ZM343 200Q380 209 397 228T414 276Q414 294 407 306T385 329T349 347T299 363L222 385Q190 378 171 358T152 309Q152 275 181 258T268 223L343 200Z" />
<glyph unicode="&#xa8;" glyph-name="dieresis" horiz-adv-x="404" d="M101 613Q74 613 55 632T35 678Q35 704 54 723T101 743Q128 743 147 724T167 678Q167 651 148 632T101 613ZM299 613Q271 613 252 632T233 678Q233 704 252 723T299 743Q326 743 345 724T365
678Q365 651 346 632T299 613Z" />
<glyph unicode="&#xa9;" glyph-name="copyright" horiz-adv-x="847" d="M425 153Q328 153 277 207T225 353V361Q225 406 240 443T281 507T344 547T423 562Q496 562 545 526T600 416H504Q493 486 423 486Q378 486 352 454T325 361V354Q325 294 350 262T424 230Q459
230 483 248T512 304H604Q598 229 549 191T425 153ZM421 32Q485 32 543 56T646 123T716 226T742 359Q742 431 717 490T649 592T547 659T423 683Q356 683 298 659T196 592T127 489T102 357Q102 284 128 224T198 122T299 56T421 32ZM421 -13Q343 -13 275 15T157 93T77
210T48 357Q48 435 77 502T156 620T275 699T423 728Q502 728 570 700T689 621T767 504T796 359Q796 280 767 212T687 94T568 16T421 -13Z" />
<glyph unicode="&#xaa;" glyph-name="ordfeminine" horiz-adv-x="448" d="M169 289Q140 289 115 296T71 318T40 356T29 413Q29 450 45 475T89 515T157 538T244 545H295V567Q295 605 279 624T225 643Q190 643 173 627T150 584H46Q49 620 64 646T103 690T160 715T230
724Q268 724 299 716T354 690T390 642T403 569V298H296V348Q278 322 248 306T169 289ZM200 368Q241 368 268 387T295 444V481H247Q196 481 167 468T138 420Q138 395 152 382T200 368Z" />
<glyph unicode="&#xab;" glyph-name="guillemotleft" horiz-adv-x="496" d="M48 261L176 444H271L148 261L271 78H176L48 261ZM227 261L355 444H450L327 261L450 78H355L227 261Z" />
<glyph unicode="&#xae;" glyph-name="registered" horiz-adv-x="519" d="M178 615H260Q301 615 324 599T347 547V546Q347 522 335 508T305 487L360 396H301L253 477H234V396H178V615ZM258 515Q292 515 292 543V544Q292 560 283 566T258 572H234V515H258ZM258 319Q297
319 330 332T388 370T427 428T441 503Q441 544 428 578T390 636T332 673T258 687Q218 687 184 674T126 636T88 577T74 502Q74 461 88 427T127 369T185 332T258 319ZM258 281Q211 281 170 298T99 344T51 414T33 502Q33 548 50 588T98 659T170 707T258 725Q306 725
347 708T418 660T465 590T482 503Q482 456 465 416T417 345T346 298T258 281Z" />
<glyph unicode="&#xaf;" glyph-name="macron" horiz-adv-x="404" d="M60 712H340V634H60V712Z" />
<glyph unicode="&#xb0;" glyph-name="degree" horiz-adv-x="441" d="M219 459Q259 459 284 488T309 559Q309 603 284 632T219 661Q178 661 152 632T126 559Q126 517 152 488T219 459ZM219 396Q184 396 153 409T99 444T63 496T50 559Q50 593 63 623T99 675T153
711T219 724Q254 724 284 711T338 676T374 623T387 559Q387 526 374 496T338 444T285 409T219 396Z" />
<glyph unicode="&#xb1;" glyph-name="plusminus" horiz-adv-x="543" d="M219 332H37V426H219V602H320V426H503V332H320V157H219V332ZM37 89H504V0H37V89Z" />
<glyph unicode="&#xb2;" glyph-name="twosuperior" horiz-adv-x="317" d="M7 373L135 508Q162 536 178 560T194 607Q194 627 184 638T152 650Q130 650 117 636T100 589H15Q18 652 55 686T156 720Q220 720 252 690T285 611Q285 575 266 545T215 485L157 428H288V360H7V373Z"
/>
<glyph unicode="&#xb3;" glyph-name="threesuperior" horiz-adv-x="340" d="M166 354Q92 354 57 387T20 474H103Q105 451 118 436T161 420Q188 420 201 432T215 467Q215 512 161 512H133V570H160Q212 570 212 613Q212 631 201 642T167 653Q144 653 130 641T113
605H30Q34 655 69 687T169 720Q232 720 266 693T300 623Q300 593 284 574T239 546Q270 540 289 519T309 464Q309 413 272 384T166 354Z" />
<glyph unicode="&#xb4;" glyph-name="acute" horiz-adv-x="404" d="M207 756H341L237 601H148L207 756Z" />
<glyph unicode="&#xb6;" glyph-name="paragraph" horiz-adv-x="577" d="M268 339H257Q208 339 168 350T99 385T54 442T38 524Q38 572 54 608T100 668T169 703T257 715H489V-100H417V655H339V-100H268V339Z" />
<glyph unicode="&#xb7;" glyph-name="periodcentered" horiz-adv-x="293" d="M144 248Q111 248 88 271T65 327Q65 360 88 382T144 405Q178 405 201 383T224 327Q224 294 201 271T144 248Z" />
<glyph unicode="&#xb8;" glyph-name="cedilla" horiz-adv-x="404" d="M206 -219Q158 -219 130 -196T96 -131H162Q164 -144 174 -154T202 -164Q219 -164 229 -155T239 -130Q239 -116 230 -107T204 -98Q193 -98 186 -101T174 -107L140 -75L184 0H244L215 -50Q234
-48 252 -51T284 -65T306 -92T315 -133Q315 -175 284 -197T206 -219Z" />
<glyph unicode="&#xb9;" glyph-name="onesuperior" horiz-adv-x="257" d="M104 625L22 574V652L116 715H198V360H104V625Z" />
<glyph unicode="&#xba;" glyph-name="ordmasculine" horiz-adv-x="508" d="M253 374Q304 374 330 409T357 504V510Q357 570 330 604T253 639Q203 639 175 605T147 510V504Q147 443 174 409T253 374ZM252 289Q205 289 165 304T96 347T51 414T34 501V507Q34 556
50 596T96 665T166 708T253 724Q299 724 339 709T408 666T453 599T470 511V505Q470 455 454 416T408 348T338 304T252 289Z" />
<glyph unicode="&#xbb;" glyph-name="guillemotright" horiz-adv-x="496" d="M166 261L43 444H138L266 261L138 78H43L166 261ZM344 261L221 444H316L444 261L316 78H221L344 261Z" />
<glyph unicode="&#xbc;" glyph-name="onequarter" horiz-adv-x="728" d="M106 625L24 574V652L118 715H200V360H106V625ZM583 715H660L132 0H55L583 715ZM566 70H388V104L542 356H655V134H701V70H655V1H566V70ZM568 134V291L477 134H568Z" />
<glyph unicode="&#xbd;" glyph-name="onehalf" horiz-adv-x="732" d="M106 625L24 574V652L118 715H200V360H106V625ZM570 715H647L119 0H42L570 715ZM418 14L546 149Q573 177 589 201T605 248Q605 268 595 279T563 291Q541 291 528 277T511 230H426Q429 293 466
327T567 361Q631 361 663 331T696 252Q696 216 677 186T626 126L568 69H699V1H418V14Z" />
<glyph unicode="&#xbe;" glyph-name="threequarters" horiz-adv-x="742" d="M169 354Q95 354 60 387T23 474H106Q108 451 121 436T164 420Q191 420 204 432T218 467Q218 512 164 512H136V570H163Q215 570 215 613Q215 631 204 642T170 653Q147 653 133 641T116
605H33Q37 655 72 687T172 720Q235 720 269 693T303 623Q303 593 287 574T242 546Q273 540 292 519T312 464Q312 413 275 384T169 354ZM624 715H701L173 0H96L624 715ZM577 70H399V104L553 356H666V134H712V70H666V1H577V70ZM579 134V291L488 134H579Z" />
<glyph unicode="&#xbf;" glyph-name="questiondown" horiz-adv-x="520" d="M340 346Q340 316 331 292T308 247T275 208T239 171Q211 143 190 117T169 58Q169 20 190 -3T258 -26Q305 -26 335 4T370 87H486Q483 38 465 -1T417 -68T344 -111T252 -126Q198 -126 159
-113T93 -75T55 -19T42 49Q42 76 49 98T69 139T97 176T130 210Q148 227 165 243T195 277T218 312T228 352V384H340V346ZM285 606Q319 606 343 584T367 529Q367 496 343 474T285 451Q252 451 229 473T205 529Q205 561 228 583T285 606Z" />
<glyph unicode="&#xc0;" glyph-name="Agrave" horiz-adv-x="707" d="M266 715H440L676 0H538L481 177H208L152 0H27L266 715ZM239 274H450L345 606L239 274ZM213 901H349L402 766H311L213 901Z" />
<glyph unicode="&#xc1;" glyph-name="Aacute" horiz-adv-x="707" d="M266 715H440L676 0H538L481 177H208L152 0H27L266 715ZM239 274H450L345 606L239 274ZM352 901H488L389 766H298L352 901Z" />
<glyph unicode="&#xc2;" glyph-name="Acircumflex" horiz-adv-x="707" d="M266 715H440L676 0H538L481 177H208L152 0H27L266 715ZM239 274H450L345 606L239 274ZM299 901H403L511 766H423L349 821L274 766H188L299 901Z" />
<glyph unicode="&#xc3;" glyph-name="Atilde" horiz-adv-x="707" d="M266 715H440L676 0H538L481 177H208L152 0H27L266 715ZM239 274H450L345 606L239 274ZM408 768Q390 768 375 774T345 787T319 801T296 807Q282 807 272 796T259 767H183Q188 830 219 864T292
898Q309 898 324 892T354 878T380 864T405 858Q419 858 428 869T441 898H518Q512 835 481 802T408 768Z" />
<glyph unicode="&#xc4;" glyph-name="Adieresis" horiz-adv-x="707" d="M266 715H440L676 0H538L481 177H208L152 0H27L266 715ZM239 274H450L345 606L239 274ZM244 777Q217 777 198 796T178 842Q178 869 197 888T244 907Q271 907 290 888T310 842Q310 815 291
796T244 777ZM455 777Q428 777 409 796T389 842Q389 869 408 888T455 907Q482 907 501 888T521 842Q521 815 502 796T455 777Z" />
<glyph unicode="&#xc5;" glyph-name="Aring" horiz-adv-x="707" d="M266 715H440L676 0H538L481 177H208L152 0H27L266 715ZM239 274H450L345 606L239 274ZM350 807Q372 807 386 822T400 862Q400 886 386 901T350 917Q327 917 314 902T300 862Q300 838 313 823T350
807ZM350 753Q327 753 307 761T271 785T247 819T238 862Q238 884 247 904T271 939T306 962T350 971Q373 971 393 963T429 939T453 904T462 862Q462 839 453 820T429 785T394 762T350 753Z" />
<glyph unicode="&#xc6;" glyph-name="AE" horiz-adv-x="975" d="M373 715H916V610H604V414H854V314H604V105H933V0H471V183H239L152 0H22L373 715ZM285 278H471V610H444L285 278Z" />
<glyph unicode="&#xc7;" glyph-name="Ccedilla" horiz-adv-x="745" d="M380 -219Q332 -219 304 -196T270 -131H336Q338 -144 348 -154T376 -164Q393 -164 403 -155T413 -130Q413 -116 404 -107T378 -98Q367 -98 360 -101T348 -107L314 -75L353 -8Q279 -2 222 26T125
101T66 212T46 353V361Q46 442 72 509T144 624T254 699T393 726Q454 726 507 711T602 664T668 586T700 476H565Q554 548 513 584T394 620Q347 620 309 602T243 551T201 470T186 362V354Q186 233 240 166T395 98Q470 98 518 135T578 249H708Q692 124 613 60T412
-10L389 -50Q408 -48 426 -51T458 -65T480 -92T489 -133Q489 -175 458 -197T380 -219Z" />
<glyph unicode="&#xc8;" glyph-name="Egrave" horiz-adv-x="588" d="M82 715H529V610H215V414H467V314H215V105H546V0H82V715ZM176 901H312L365 766H274L176 901Z" />
<glyph unicode="&#xc9;" glyph-name="Eacute" horiz-adv-x="588" d="M82 715H529V610H215V414H467V314H215V105H546V0H82V715ZM315 901H451L352 766H261L315 901Z" />
<glyph unicode="&#xca;" glyph-name="Ecircumflex" horiz-adv-x="588" d="M82 715H529V610H215V414H467V314H215V105H546V0H82V715ZM262 901H366L474 766H386L312 821L237 766H151L262 901Z" />
<glyph unicode="&#xcb;" glyph-name="Edieresis" horiz-adv-x="588" d="M82 715H529V610H215V414H467V314H215V105H546V0H82V715ZM207 777Q180 777 161 796T141 842Q141 869 160 888T207 907Q234 907 253 888T273 842Q273 815 254 796T207 777ZM418 777Q391 777
372 796T352 842Q352 869 371 888T418 907Q445 907 464 888T484 842Q484 815 465 796T418 777Z" />
<glyph unicode="&#xcc;" glyph-name="Igrave" horiz-adv-x="311" d="M86 715H220V0H86V715ZM273 901H409L462 766H371L273 901Z" />
<glyph unicode="&#xcd;" glyph-name="Iacute" horiz-adv-x="311" d="M86 715H220V0H86V715ZM412 901H548L449 766H358L412 901Z" />
<glyph unicode="&#xce;" glyph-name="Icircumflex" horiz-adv-x="311" d="M86 715H220V0H86V715ZM359 901H463L571 766H483L409 821L334 766H248L359 901Z" />
<glyph unicode="&#xcf;" glyph-name="Idieresis" horiz-adv-x="311" d="M86 715H220V0H86V715ZM304 777Q277 777 258 796T238 842Q238 869 257 888T304 907Q331 907 350 888T370 842Q370 815 351 796T304 777ZM515 777Q488 777 469 796T449 842Q449 869 468 888T515
907Q542 907 561 888T581 842Q581 815 562 796T515 777Z" />
<glyph unicode="&#xd0;" glyph-name="Eth" horiz-adv-x="743" d="M32 406H101V715H318Q411 715 480 690T596 618T665 508T688 365V356Q688 278 666 213T597 100T481 27T317 0H101V311H32V406ZM313 105Q434 105 491 170T549 355V363Q549 421 536 466T494 544T420
593T312 610H233V406H406V311H233V105H313Z" />
<glyph unicode="&#xd1;" glyph-name="Ntilde" horiz-adv-x="749" d="M82 715H241L542 198V715H663V0H525L203 548V0H82V715ZM443 768Q425 768 410 774T380 787T354 801T331 807Q317 807 307 796T294 767H218Q223 830 254 864T327 898Q344 898 359 892T389 878T415
864T440 858Q454 858 463 869T476 898H553Q547 835 516 802T443 768Z" />
<glyph unicode="&#xd2;" glyph-name="Ograve" horiz-adv-x="818" d="M410 97Q461 97 501 115T570 168T614 249T630 355V363Q630 418 615 465T572 546T502 599T408 619Q355 619 314 601T244 548T200 467T185 362V354Q185 295 202 248T249 167T320 115T410 97ZM408
-10Q326 -10 259 17T145 94T72 209T46 353V361Q46 439 72 506T147 621T261 697T408 725Q488 725 554 698T667 623T741 509T768 364V356Q768 278 743 211T670 95T556 18T408 -10ZM269 901H405L458 766H367L269 901Z" />
<glyph unicode="&#xd3;" glyph-name="Oacute" horiz-adv-x="818" d="M410 97Q461 97 501 115T570 168T614 249T630 355V363Q630 418 615 465T572 546T502 599T408 619Q355 619 314 601T244 548T200 467T185 362V354Q185 295 202 248T249 167T320 115T410 97ZM408
-10Q326 -10 259 17T145 94T72 209T46 353V361Q46 439 72 506T147 621T261 697T408 725Q488 725 554 698T667 623T741 509T768 364V356Q768 278 743 211T670 95T556 18T408 -10ZM408 901H544L445 766H354L408 901Z" />
<glyph unicode="&#xd4;" glyph-name="Ocircumflex" horiz-adv-x="818" d="M410 97Q461 97 501 115T570 168T614 249T630 355V363Q630 418 615 465T572 546T502 599T408 619Q355 619 314 601T244 548T200 467T185 362V354Q185 295 202 248T249 167T320 115T410
97ZM408 -10Q326 -10 259 17T145 94T72 209T46 353V361Q46 439 72 506T147 621T261 697T408 725Q488 725 554 698T667 623T741 509T768 364V356Q768 278 743 211T670 95T556 18T408 -10ZM355 901H459L567 766H479L405 821L330 766H244L355 901Z" />
<glyph unicode="&#xd5;" glyph-name="Otilde" horiz-adv-x="818" d="M410 97Q461 97 501 115T570 168T614 249T630 355V363Q630 418 615 465T572 546T502 599T408 619Q355 619 314 601T244 548T200 467T185 362V354Q185 295 202 248T249 167T320 115T410 97ZM408
-10Q326 -10 259 17T145 94T72 209T46 353V361Q46 439 72 506T147 621T261 697T408 725Q488 725 554 698T667 623T741 509T768 364V356Q768 278 743 211T670 95T556 18T408 -10ZM464 768Q446 768 431 774T401 787T375 801T352 807Q338 807 328 796T315 767H239Q244
830 275 864T348 898Q365 898 380 892T410 878T436 864T461 858Q475 858 484 869T497 898H574Q568 835 537 802T464 768Z" />
<glyph unicode="&#xd6;" glyph-name="Odieresis" horiz-adv-x="818" d="M410 97Q461 97 501 115T570 168T614 249T630 355V363Q630 418 615 465T572 546T502 599T408 619Q355 619 314 601T244 548T200 467T185 362V354Q185 295 202 248T249 167T320 115T410 97ZM408
-10Q326 -10 259 17T145 94T72 209T46 353V361Q46 439 72 506T147 621T261 697T408 725Q488 725 554 698T667 623T741 509T768 364V356Q768 278 743 211T670 95T556 18T408 -10ZM300 777Q273 777 254 796T234 842Q234 869 253 888T300 907Q327 907 346 888T366
842Q366 815 347 796T300 777ZM511 777Q484 777 465 796T445 842Q445 869 464 888T511 907Q538 907 557 888T577 842Q577 815 558 796T511 777Z" />
<glyph unicode="&#xd7;" glyph-name="multiply" horiz-adv-x="513" d="M35 181L189 334L34 488L100 555L254 400L408 554L474 488L320 334L475 180L408 114L254 269L101 115L35 181Z" />
<glyph unicode="&#xd8;" glyph-name="Oslash" horiz-adv-x="818" d="M34 18L125 116Q87 164 67 224T46 353V361Q46 439 72 505T147 620T261 696T408 724Q472 724 527 707T627 657L705 741L755 691L680 610Q722 562 745 500T769 364V356Q769 278 743 211T670 95T556
18T408 -10Q338 -10 280 10T176 66L84 -33L34 18ZM409 97Q460 97 501 115T571 168T615 249T631 356V364Q631 455 594 518L258 154Q318 97 409 97ZM184 354Q184 272 215 213L548 572Q492 619 408 619Q355 619 314 601T243 548T199 467T184 362V354Z" />
<glyph unicode="&#xd9;" glyph-name="Ugrave" horiz-adv-x="727" d="M357 -10Q222 -10 149 61T76 272V715H210V282Q210 183 244 140T358 97Q397 97 426 106T474 138T503 198T513 291V715H647V280Q647 139 574 65T357 -10ZM223 901H359L412 766H321L223 901Z" />
<glyph unicode="&#xda;" glyph-name="Uacute" horiz-adv-x="727" d="M357 -10Q222 -10 149 61T76 272V715H210V282Q210 183 244 140T358 97Q397 97 426 106T474 138T503 198T513 291V715H647V280Q647 139 574 65T357 -10ZM362 901H498L399 766H308L362 901Z" />
<glyph unicode="&#xdb;" glyph-name="Ucircumflex" horiz-adv-x="727" d="M357 -10Q222 -10 149 61T76 272V715H210V282Q210 183 244 140T358 97Q397 97 426 106T474 138T503 198T513 291V715H647V280Q647 139 574 65T357 -10ZM309 901H413L521 766H433L359 821L284
766H198L309 901Z" />
<glyph unicode="&#xdc;" glyph-name="Udieresis" horiz-adv-x="727" d="M357 -10Q222 -10 149 61T76 272V715H210V282Q210 183 244 140T358 97Q397 97 426 106T474 138T503 198T513 291V715H647V280Q647 139 574 65T357 -10ZM254 777Q227 777 208 796T188 842Q188
869 207 888T254 907Q281 907 300 888T320 842Q320 815 301 796T254 777ZM465 777Q438 777 419 796T399 842Q399 869 418 888T465 907Q492 907 511 888T531 842Q531 815 512 796T465 777Z" />
<glyph unicode="&#xdd;" glyph-name="Yacute" horiz-adv-x="633" d="M254 310L17 715H164L325 419L482 715H612L388 309V0H254V310ZM319 901H455L356 766H265L319 901Z" />
<glyph unicode="&#xde;" glyph-name="Thorn" horiz-adv-x="613" d="M82 715H215V588H312Q372 588 421 576T504 537T558 471T577 373V369Q577 312 558 272T504 205T421 166T315 153H215V0H82V715ZM312 250Q378 250 412 279T447 369V373Q447 437 412 462T312 488H215V250H312Z"
/>
<glyph unicode="&#xdf;" glyph-name="germandbls" horiz-adv-x="612" d="M353 -9Q321 -9 297 -5T260 5V101Q272 96 290 91T332 86Q353 86 374 91T411 112T438 154T449 223V230Q449 306 402 345T275 382V477Q311 476 335 486T375 512T396 547T403 587V591Q403 636
377 661T299 686Q251 686 222 654T193 566V0H72V557Q72 610 90 650T141 718T215 760T304 774Q352 774 391 762T459 726T502 669T518 593V590Q518 541 487 498T399 437Q436 428 468 409T523 363T559 301T573 225V219Q573 157 555 114T507 43T437 4T353 -9Z" />
<glyph unicode="&#xe0;" glyph-name="agrave" horiz-adv-x="559" d="M209 -10Q173 -10 141 -1T86 26T48 74T34 145Q34 191 55 222T112 273T197 302T302 311H367V338Q367 391 347 417T272 443Q224 443 201 422T172 361H55Q59 407 78 439T127 493T196 524T279 534Q323
534 361 525T427 493T472 434T488 343V0H369V64Q343 30 306 10T209 -10ZM238 77Q294 77 330 104T367 183V235H305Q236 235 195 217T154 150Q154 117 173 97T238 77ZM136 756H270L329 601H240L136 756Z" />
<glyph unicode="&#xe1;" glyph-name="aacute" horiz-adv-x="559" d="M209 -10Q173 -10 141 -1T86 26T48 74T34 145Q34 191 55 222T112 273T197 302T302 311H367V338Q367 391 347 417T272 443Q224 443 201 422T172 361H55Q59 407 78 439T127 493T196 524T279 534Q323
534 361 525T427 493T472 434T488 343V0H369V64Q343 30 306 10T209 -10ZM238 77Q294 77 330 104T367 183V235H305Q236 235 195 217T154 150Q154 117 173 97T238 77ZM288 756H422L318 601H229L288 756Z" />
<glyph unicode="&#xe2;" glyph-name="acircumflex" horiz-adv-x="559" d="M209 -10Q173 -10 141 -1T86 26T48 74T34 145Q34 191 55 222T112 273T197 302T302 311H367V338Q367 391 347 417T272 443Q224 443 201 422T172 361H55Q59 407 78 439T127 493T196 524T279
534Q323 534 361 525T427 493T472 434T488 343V0H369V64Q343 30 306 10T209 -10ZM238 77Q294 77 330 104T367 183V235H305Q236 235 195 217T154 150Q154 117 173 97T238 77ZM223 753H319L430 602H344L269 670L193 602H109L223 753Z" />
<glyph unicode="&#xe3;" glyph-name="atilde" horiz-adv-x="559" d="M209 -10Q173 -10 141 -1T86 26T48 74T34 145Q34 191 55 222T112 273T197 302T302 311H367V338Q367 391 347 417T272 443Q224 443 201 422T172 361H55Q59 407 78 439T127 493T196 524T279 534Q323
534 361 525T427 493T472 434T488 343V0H369V64Q343 30 306 10T209 -10ZM238 77Q294 77 330 104T367 183V235H305Q236 235 195 217T154 150Q154 117 173 97T238 77ZM337 606Q319 606 304 612T275 625T249 639T226 646Q212 646 202 635T189 606H114Q120 669 149
703T221 737Q238 737 253 731T282 718T308 704T333 698Q347 698 356 709T369 738H444Q438 675 409 641T337 606Z" />
<glyph unicode="&#xe4;" glyph-name="adieresis" horiz-adv-x="559" d="M209 -10Q173 -10 141 -1T86 26T48 74T34 145Q34 191 55 222T112 273T197 302T302 311H367V338Q367 391 347 417T272 443Q224 443 201 422T172 361H55Q59 407 78 439T127 493T196 524T279
534Q323 534 361 525T427 493T472 434T488 343V0H369V64Q343 30 306 10T209 -10ZM238 77Q294 77 330 104T367 183V235H305Q236 235 195 217T154 150Q154 117 173 97T238 77ZM180 613Q153 613 134 632T114 678Q114 704 133 723T180 743Q207 743 226 724T246 678Q246
651 227 632T180 613ZM378 613Q350 613 331 632T312 678Q312 704 331 723T378 743Q405 743 424 724T444 678Q444 651 425 632T378 613Z" />
<glyph unicode="&#xe5;" glyph-name="aring" horiz-adv-x="559" d="M209 -10Q173 -10 141 -1T86 26T48 74T34 145Q34 191 55 222T112 273T197 302T302 311H367V338Q367 391 347 417T272 443Q224 443 201 422T172 361H55Q59 407 78 439T127 493T196 524T279 534Q323
534 361 525T427 493T472 434T488 343V0H369V64Q343 30 306 10T209 -10ZM238 77Q294 77 330 104T367 183V235H305Q236 235 195 217T154 150Q154 117 173 97T238 77ZM279 643Q301 643 315 659T329 698Q329 722 315 737T279 753Q257 753 243 738T229 698Q229 675
243 659T279 643ZM279 590Q256 590 236 598T201 622T177 656T168 698Q168 720 177 739T201 774T236 797T279 806Q302 806 322 798T357 774T381 740T390 698Q390 676 381 657T357 622T322 599T279 590Z" />
<glyph unicode="&#xe6;" glyph-name="ae" horiz-adv-x="895" d="M620 -10Q552 -10 502 16T421 90Q386 39 339 15T216 -10Q178 -10 145 -1T87 26T48 74T34 145Q34 191 54 223T111 275T195 303T300 312H368V338Q368 391 346 417T273 443Q181 443 172 361H55Q59 407
78 439T126 493T194 524T276 534Q333 534 375 517T442 458Q473 494 516 514T615 534Q662 534 705 520T782 473T836 391T856 268V235H484Q487 162 521 121T621 80Q674 80 702 101T737 160H853Q840 77 779 34T620 -10ZM239 77Q296 77 332 104T368 183V234H303Q235
234 195 217T154 152Q154 117 173 97T239 77ZM736 312Q731 383 700 414T615 446Q562 446 528 411T486 312H736Z" />
<glyph unicode="&#xe7;" glyph-name="ccedilla" horiz-adv-x="579" d="M283 -219Q235 -219 207 -196T173 -131H239Q241 -144 251 -154T279 -164Q296 -164 306 -155T316 -130Q316 -116 307 -107T281 -98Q270 -98 263 -101T251 -107L217 -75L257 -7Q209 -1 169 19T99
73T54 152T37 255V263Q37 325 57 375T114 460T198 515T301 534Q344 534 385 524T458 490T513 430T540 338H423Q415 391 383 414T303 437Q272 437 246 426T201 392T172 337T161 265V257Q161 171 200 127T306 83Q330 83 351 90T390 111T418 146T432 195H543Q536 107
476 51T315 -10L292 -50Q311 -48 329 -51T361 -65T383 -92T392 -133Q392 -175 361 -197T283 -219Z" />
<glyph unicode="&#xe8;" glyph-name="egrave" horiz-adv-x="584" d="M302 -10Q244 -10 196 8T112 61T57 145T37 256V264Q37 325 56 374T111 459T193 514T297 534Q346 534 390 519T469 472T523 390T544 270V235H161Q164 160 200 120T305 80Q360 80 389 101T425
160H542Q529 77 466 34T302 -10ZM424 316Q419 384 387 415T297 446Q242 446 207 412T163 316H424ZM152 756H286L345 601H256L152 756Z" />
<glyph unicode="&#xe9;" glyph-name="eacute" horiz-adv-x="584" d="M302 -10Q244 -10 196 8T112 61T57 145T37 256V264Q37 325 56 374T111 459T193 514T297 534Q346 534 390 519T469 472T523 390T544 270V235H161Q164 160 200 120T305 80Q360 80 389 101T425
160H542Q529 77 466 34T302 -10ZM424 316Q419 384 387 415T297 446Q242 446 207 412T163 316H424ZM304 756H438L334 601H245L304 756Z" />
<glyph unicode="&#xea;" glyph-name="ecircumflex" horiz-adv-x="584" d="M302 -10Q244 -10 196 8T112 61T57 145T37 256V264Q37 325 56 374T111 459T193 514T297 534Q346 534 390 519T469 472T523 390T544 270V235H161Q164 160 200 120T305 80Q360 80 389 101T425
160H542Q529 77 466 34T302 -10ZM424 316Q419 384 387 415T297 446Q242 446 207 412T163 316H424ZM248 753H344L455 602H369L294 670L218 602H134L248 753Z" />
<glyph unicode="&#xeb;" glyph-name="edieresis" horiz-adv-x="584" d="M302 -10Q244 -10 196 8T112 61T57 145T37 256V264Q37 325 56 374T111 459T193 514T297 534Q346 534 390 519T469 472T523 390T544 270V235H161Q164 160 200 120T305 80Q360 80 389 101T425
160H542Q529 77 466 34T302 -10ZM424 316Q419 384 387 415T297 446Q242 446 207 412T163 316H424ZM196 613Q169 613 150 632T130 678Q130 704 149 723T196 743Q223 743 242 724T262 678Q262 651 243 632T196 613ZM394 613Q366 613 347 632T328 678Q328 704 347
723T394 743Q421 743 440 724T460 678Q460 651 441 632T394 613Z" />
<glyph unicode="&#xec;" glyph-name="igrave" horiz-adv-x="275" d="M75 523H196V0H75V523ZM250 756H384L443 601H354L250 756Z" />
<glyph unicode="&#xed;" glyph-name="iacute" horiz-adv-x="275" d="M75 523H196V0H75V523ZM402 756H536L432 601H343L402 756Z" />
<glyph unicode="&#xee;" glyph-name="icircumflex" horiz-adv-x="275" d="M75 523H196V0H75V523ZM346 753H442L553 602H467L392 670L316 602H232L346 753Z" />
<glyph unicode="&#xef;" glyph-name="idieresis" horiz-adv-x="275" d="M39 613Q12 613 -7 632T-27 678Q-27 704 -8 723T39 743Q66 743 85 724T105 678Q105 651 86 632T39 613ZM231 613Q204 613 185 632T165 678Q165 704 184 723T231 743Q258 743 277 724T297
678Q297 651 278 632T231 613ZM75 523H196V0H75V523Z" />
<glyph unicode="&#xf0;" glyph-name="eth" horiz-adv-x="615" d="M141 620L244 669Q213 696 182 720T120 765H263Q280 755 299 743T338 715L431 760L458 706L389 672Q425 639 458 598T517 509T558 407T574 292V270Q574 207 554 156T498 67T413 10T304 -10Q246
-10 197 9T113 64T57 149T37 259V269Q37 328 56 376T109 459T184 512T274 531Q320 531 351 515T408 470Q387 512 357 551T291 625L168 566L141 620ZM306 84Q374 84 412 131T450 257V265Q450 346 412 392T307 439Q239 439 200 393T161 266V258Q161 177 199 131T306
84Z" />
<glyph unicode="&#xf1;" glyph-name="ntilde" horiz-adv-x="612" d="M72 523H193V440Q212 478 254 506T362 534Q401 534 434 522T491 486T528 422T541 329V0H420V318Q420 378 395 405T316 433Q265 433 229 402T193 308V0H72V523ZM361 606Q343 606 328 612T299
625T273 639T250 646Q236 646 226 635T213 606H138Q144 669 173 703T245 737Q262 737 277 731T306 718T332 704T357 698Q371 698 380 709T393 738H468Q462 675 433 641T361 606Z" />
<glyph unicode="&#xf2;" glyph-name="ograve" horiz-adv-x="615" d="M306 84Q374 84 412 130T450 258V265Q450 346 412 392T306 439Q238 439 200 393T161 266V258Q161 177 199 131T306 84ZM305 -10Q247 -10 198 9T113 63T57 147T37 256V264Q37 325 57 374T114
459T199 514T306 534Q363 534 412 515T497 461T553 376T574 267V259Q574 198 554 149T497 64T412 9T305 -10ZM162 756H296L355 601H266L162 756Z" />
<glyph unicode="&#xf3;" glyph-name="oacute" horiz-adv-x="615" d="M306 84Q374 84 412 130T450 258V265Q450 346 412 392T306 439Q238 439 200 393T161 266V258Q161 177 199 131T306 84ZM305 -10Q247 -10 198 9T113 63T57 147T37 256V264Q37 325 57 374T114
459T199 514T306 534Q363 534 412 515T497 461T553 376T574 267V259Q574 198 554 149T497 64T412 9T305 -10ZM314 756H448L344 601H255L314 756Z" />
<glyph unicode="&#xf4;" glyph-name="ocircumflex" horiz-adv-x="615" d="M306 84Q374 84 412 130T450 258V265Q450 346 412 392T306 439Q238 439 200 393T161 266V258Q161 177 199 131T306 84ZM305 -10Q247 -10 198 9T113 63T57 147T37 256V264Q37 325 57 374T114
459T199 514T306 534Q363 534 412 515T497 461T553 376T574 267V259Q574 198 554 149T497 64T412 9T305 -10ZM258 753H354L465 602H379L304 670L228 602H144L258 753Z" />
<glyph unicode="&#xf5;" glyph-name="otilde" horiz-adv-x="615" d="M306 84Q374 84 412 130T450 258V265Q450 346 412 392T306 439Q238 439 200 393T161 266V258Q161 177 199 131T306 84ZM305 -10Q247 -10 198 9T113 63T57 147T37 256V264Q37 325 57 374T114
459T199 514T306 534Q363 534 412 515T497 461T553 376T574 267V259Q574 198 554 149T497 64T412 9T305 -10ZM363 606Q345 606 330 612T301 625T275 639T252 646Q238 646 228 635T215 606H140Q146 669 175 703T247 737Q264 737 279 731T308 718T334 704T359 698Q373
698 382 709T395 738H470Q464 675 435 641T363 606Z" />
<glyph unicode="&#xf6;" glyph-name="odieresis" horiz-adv-x="615" d="M306 84Q374 84 412 130T450 258V265Q450 346 412 392T306 439Q238 439 200 393T161 266V258Q161 177 199 131T306 84ZM305 -10Q247 -10 198 9T113 63T57 147T37 256V264Q37 325 57 374T114
459T199 514T306 534Q363 534 412 515T497 461T553 376T574 267V259Q574 198 554 149T497 64T412 9T305 -10ZM206 613Q179 613 160 632T140 678Q140 704 159 723T206 743Q233 743 252 724T272 678Q272 651 253 632T206 613ZM404 613Q376 613 357 632T338 678Q338
704 357 723T404 743Q431 743 450 724T470 678Q470 651 451 632T404 613Z" />
<glyph unicode="&#xf7;" glyph-name="divide" horiz-adv-x="544" d="M270 71Q238 71 216 92T194 146Q194 178 216 199T270 221Q301 221 323 200T346 146Q346 114 324 93T270 71ZM37 387H504V296H37V387ZM270 461Q238 461 216 482T194 536Q194 568 216 590T270
612Q301 612 323 590T346 536Q346 504 324 483T270 461Z" />
<glyph unicode="&#xf8;" glyph-name="oslash" horiz-adv-x="615" d="M22 4L95 83Q67 117 52 160T37 256V264Q37 325 57 374T114 459T199 514T306 534Q397 534 465 486L532 559L579 517L512 444Q541 410 557 366T574 267V259Q574 198 554 149T497 64T412 9T305
-10Q257 -10 216 3T141 40L69 -38L22 4ZM306 84Q375 84 413 130T451 257V265Q451 319 433 358L211 117Q247 84 306 84ZM161 258Q161 210 175 171L395 410Q357 440 306 440Q238 440 200 394T161 266V258Z" />
<glyph unicode="&#xf9;" glyph-name="ugrave" horiz-adv-x="609" d="M247 -10Q208 -10 175 1T118 37T81 98T67 188V523H188V202Q188 142 213 115T291 87Q315 87 337 95T376 118T403 157T413 212V523H534V0H413V82Q393 44 352 17T247 -10ZM159 756H293L352 601H263L159
756Z" />
<glyph unicode="&#xfa;" glyph-name="uacute" horiz-adv-x="609" d="M247 -10Q208 -10 175 1T118 37T81 98T67 188V523H188V202Q188 142 213 115T291 87Q315 87 337 95T376 118T403 157T413 212V523H534V0H413V82Q393 44 352 17T247 -10ZM311 756H445L341 601H252L311
756Z" />
<glyph unicode="&#xfb;" glyph-name="ucircumflex" horiz-adv-x="609" d="M247 -10Q208 -10 175 1T118 37T81 98T67 188V523H188V202Q188 142 213 115T291 87Q315 87 337 95T376 118T403 157T413 212V523H534V0H413V82Q393 44 352 17T247 -10ZM255 753H351L462
602H376L301 670L225 602H141L255 753Z" />
<glyph unicode="&#xfc;" glyph-name="udieresis" horiz-adv-x="609" d="M247 -10Q208 -10 175 1T118 37T81 98T67 188V523H188V202Q188 142 213 115T291 87Q315 87 337 95T376 118T403 157T413 212V523H534V0H413V82Q393 44 352 17T247 -10ZM203 613Q176 613 157
632T137 678Q137 704 156 723T203 743Q230 743 249 724T269 678Q269 651 250 632T203 613ZM401 613Q373 613 354 632T335 678Q335 704 354 723T401 743Q428 743 447 724T467 678Q467 651 448 632T401 613Z" />
<glyph unicode="&#xfd;" glyph-name="yacute" horiz-adv-x="557" d="M225 53L18 523H149L288 186L416 523H534L249 -179H130L225 53ZM294 756H428L324 601H235L294 756Z" />
<glyph unicode="&#xfe;" glyph-name="thorn" horiz-adv-x="637" d="M72 765H193V439Q204 458 221 475T260 505T309 526T364 534Q413 534 455 516T529 464T578 381T596 268V260Q596 197 579 147T531 62T458 9T364 -10Q301 -10 258 17T193 82V-179H72V765ZM334 86Q401
86 436 129T472 258V266Q472 309 462 341T432 396T388 428T333 439Q270 439 230 397T189 266V258Q189 170 228 128T334 86Z" />
<glyph unicode="&#xff;" glyph-name="ydieresis" horiz-adv-x="557" d="M225 53L18 523H149L288 186L416 523H534L249 -179H130L225 53ZM186 613Q159 613 140 632T120 678Q120 704 139 723T186 743Q213 743 232 724T252 678Q252 651 233 632T186 613ZM384 613Q356
613 337 632T318 678Q318 704 337 723T384 743Q411 743 430 724T450 678Q450 651 431 632T384 613Z" />
<glyph unicode="&#x100;" glyph-name="Amacron" horiz-adv-x="707" d="M266 715H440L676 0H538L481 177H208L152 0H27L266 715ZM239 274H450L345 606L239 274ZM206 861H494V780H206V861Z" />
<glyph unicode="&#x101;" glyph-name="amacron" horiz-adv-x="559" d="M209 -10Q173 -10 141 -1T86 26T48 74T34 145Q34 191 55 222T112 273T197 302T302 311H367V338Q367 391 347 417T272 443Q224 443 201 422T172 361H55Q59 407 78 439T127 493T196 524T279
534Q323 534 361 525T427 493T472 434T488 343V0H369V64Q343 30 306 10T209 -10ZM238 77Q294 77 330 104T367 183V235H305Q236 235 195 217T154 150Q154 117 173 97T238 77ZM139 712H419V634H139V712Z" />
<glyph unicode="&#x102;" glyph-name="Abreve" horiz-adv-x="707" d="M266 715H440L676 0H538L481 177H208L152 0H27L266 715ZM239 274H450L345 606L239 274ZM349 761Q286 761 247 799T204 901H289Q293 875 307 860T349 845Q376 845 391 860T412 901H496Q494 870
482 844T451 800T405 771T349 761Z" />
<glyph unicode="&#x103;" glyph-name="abreve" horiz-adv-x="559" d="M209 -10Q173 -10 141 -1T86 26T48 74T34 145Q34 191 55 222T112 273T197 302T302 311H367V338Q367 391 347 417T272 443Q224 443 201 422T172 361H55Q59 407 78 439T127 493T196 524T279 534Q323
534 361 525T427 493T472 434T488 343V0H369V64Q343 30 306 10T209 -10ZM238 77Q294 77 330 104T367 183V235H305Q236 235 195 217T154 150Q154 117 173 97T238 77ZM278 606Q216 606 177 645T133 749H217Q221 722 235 707T278 691Q306 691 322 706T343 749H425Q423
717 411 691T380 645T334 616T278 606Z" />
<glyph unicode="&#x104;" glyph-name="Aogonek" horiz-adv-x="707" d="M605 -182Q554 -182 524 -161T493 -101Q493 -67 517 -42T574 0H538L481 177H208L152 0H27L266 715H440L673 7Q602 -34 602 -76Q602 -108 637 -108Q662 -108 680 -99V-168Q667 -174 649 -178T605
-182ZM239 274H450L345 606L239 274Z" />
<glyph unicode="&#x105;" glyph-name="aogonek" horiz-adv-x="559" d="M421 -182Q372 -182 342 -161T312 -102Q312 -67 337 -42T394 0H369V64Q343 30 306 10T209 -10Q173 -10 141 -1T86 26T48 74T34 145Q34 191 55 222T112 273T197 302T302 311H367V338Q367 391
347 417T272 443Q224 443 201 422T172 361H55Q59 407 78 439T127 493T196 524T279 534Q323 534 361 525T427 493T472 434T488 343V7Q451 -16 435 -36T418 -77Q418 -110 453 -110Q476 -110 496 -101V-168Q483 -174 465 -178T421 -182ZM238 77Q294 77 330 104T367
183V235H305Q236 235 195 217T154 150Q154 117 173 97T238 77Z" />
<glyph unicode="&#x106;" glyph-name="Cacute" horiz-adv-x="745" d="M395 -10Q311 -10 246 16T137 89T69 203T46 353V361Q46 442 72 509T144 624T254 699T393 726Q454 726 507 711T602 664T668 586T700 476H565Q554 548 513 584T394 620Q347 620 309 602T243
551T201 470T186 362V354Q186 233 240 166T395 98Q470 98 518 135T578 249H708Q700 184 674 136T608 55T513 7T395 -10ZM396 901H532L433 766H342L396 901Z" />
<glyph unicode="&#x107;" glyph-name="cacute" horiz-adv-x="579" d="M301 -10Q245 -10 197 8T113 60T57 143T37 255V263Q37 325 57 375T114 460T198 515T301 534Q344 534 385 524T458 490T513 430T540 338H423Q415 391 383 414T303 437Q272 437 246 426T201 392T172
337T161 265V257Q161 171 200 127T306 83Q330 83 351 90T390 111T418 146T432 195H543Q540 150 522 113T472 48T398 5T301 -10ZM307 756H441L337 601H248L307 756Z" />
<glyph unicode="&#x108;" glyph-name="Ccircumflex" horiz-adv-x="745" d="M395 -10Q311 -10 246 16T137 89T69 203T46 353V361Q46 442 72 509T144 624T254 699T393 726Q454 726 507 711T602 664T668 586T700 476H565Q554 548 513 584T394 620Q347 620 309 602T243
551T201 470T186 362V354Q186 233 240 166T395 98Q470 98 518 135T578 249H708Q700 184 674 136T608 55T513 7T395 -10ZM343 901H447L555 766H467L393 821L318 766H232L343 901Z" />
<glyph unicode="&#x109;" glyph-name="ccircumflex" horiz-adv-x="579" d="M301 -10Q245 -10 197 8T113 60T57 143T37 255V263Q37 325 57 375T114 460T198 515T301 534Q344 534 385 524T458 490T513 430T540 338H423Q415 391 383 414T303 437Q272 437 246 426T201
392T172 337T161 265V257Q161 171 200 127T306 83Q330 83 351 90T390 111T418 146T432 195H543Q540 150 522 113T472 48T398 5T301 -10ZM251 753H347L458 602H372L297 670L221 602H137L251 753Z" />
<glyph unicode="&#x10a;" glyph-name="Cdotaccent" horiz-adv-x="745" d="M395 -10Q311 -10 246 16T137 89T69 203T46 353V361Q46 442 72 509T144 624T254 699T393 726Q454 726 507 711T602 664T668 586T700 476H565Q554 548 513 584T394 620Q347 620 309 602T243
551T201 470T186 362V354Q186 233 240 166T395 98Q470 98 518 135T578 249H708Q700 184 674 136T608 55T513 7T395 -10ZM391 775Q361 775 341 795T320 844Q320 873 340 892T391 912Q420 912 441 893T462 844Q462 815 441 795T391 775Z" />
<glyph unicode="&#x10b;" glyph-name="cdotaccent" horiz-adv-x="579" d="M301 -10Q245 -10 197 8T113 60T57 143T37 255V263Q37 325 57 375T114 460T198 515T301 534Q344 534 385 524T458 490T513 430T540 338H423Q415 391 383 414T303 437Q272 437 246 426T201
392T172 337T161 265V257Q161 171 200 127T306 83Q330 83 351 90T390 111T418 146T432 195H543Q540 150 522 113T472 48T398 5T301 -10ZM299 611Q269 611 249 631T228 680Q228 709 248 728T299 748Q328 748 349 729T370 680Q370 651 349 631T299 611Z" />
<glyph unicode="&#x10c;" glyph-name="Ccaron" horiz-adv-x="745" d="M395 -10Q311 -10 246 16T137 89T69 203T46 353V361Q46 442 72 509T144 624T254 699T393 726Q454 726 507 711T602 664T668 586T700 476H565Q554 548 513 584T394 620Q347 620 309 602T243
551T201 470T186 362V354Q186 233 240 166T395 98Q470 98 518 135T578 249H708Q700 184 674 136T608 55T513 7T395 -10ZM232 901H320L395 846L469 901H555L445 766H340L232 901Z" />
<glyph unicode="&#x10d;" glyph-name="ccaron" horiz-adv-x="579" d="M301 -10Q245 -10 197 8T113 60T57 143T37 255V263Q37 325 57 375T114 460T198 515T301 534Q344 534 385 524T458 490T513 430T540 338H423Q415 391 383 414T303 437Q272 437 246 426T201 392T172
337T161 265V257Q161 171 200 127T306 83Q330 83 351 90T390 111T418 146T432 195H543Q540 150 522 113T472 48T398 5T301 -10ZM137 753H224L299 686L374 753H458L345 602H249L137 753Z" />
<glyph unicode="&#x10e;" glyph-name="Dcaron" horiz-adv-x="718" d="M293 105Q414 105 472 170T530 355V363Q530 421 517 466T474 544T400 593T292 610H215V105H293ZM82 715H299Q392 715 461 690T577 618T646 508T669 365V356Q669 278 646 213T577 100T461 27T297
0H82V715ZM162 901H250L325 846L399 901H485L375 766H270L162 901Z" />
<glyph unicode="&#x10f;" glyph-name="dcaron" horiz-adv-x="637" d="M268 -10Q219 -10 177 7T104 57T56 140T38 253V261Q38 324 55 374T104 460T179 515T273 534Q337 534 377 508T440 443V765H561V0H440V88Q429 68 412 51T373 20T324 -2T268 -10ZM298 86Q361
86 402 128T444 259V267Q444 354 407 396T303 439Q236 439 199 394T162 264V256Q162 170 200 128T298 86ZM615 765H725L676 590H605L615 765Z" />
<glyph unicode="&#x110;" glyph-name="Dcroat" horiz-adv-x="743" d="M32 406H101V715H318Q411 715 480 690T596 618T665 508T688 365V356Q688 278 666 213T597 100T481 27T317 0H101V311H32V406ZM313 105Q434 105 491 170T549 355V363Q549 421 536 466T494 544T420
593T312 610H233V406H406V311H233V105H313Z" />
<glyph unicode="&#x111;" glyph-name="dcroat" horiz-adv-x="637" d="M271 679H440V765H561V679H629V604H561V0H440V88Q429 68 412 51T373 20T324 -2T268 -10Q219 -10 177 7T104 57T56 140T38 253V261Q38 324 55 374T104 460T179 515T273 534Q337 534 377 508T440
443V604H271V679ZM298 86Q361 86 402 128T444 259V267Q444 354 407 396T303 439Q236 439 199 394T162 264V256Q162 170 200 128T298 86Z" />
<glyph unicode="&#x112;" glyph-name="Emacron" horiz-adv-x="588" d="M82 715H529V610H215V414H467V314H215V105H546V0H82V715ZM169 861H457V780H169V861Z" />
<glyph unicode="&#x113;" glyph-name="emacron" horiz-adv-x="584" d="M302 -10Q244 -10 196 8T112 61T57 145T37 256V264Q37 325 56 374T111 459T193 514T297 534Q346 534 390 519T469 472T523 390T544 270V235H161Q164 160 200 120T305 80Q360 80 389 101T425
160H542Q529 77 466 34T302 -10ZM424 316Q419 384 387 415T297 446Q242 446 207 412T163 316H424ZM155 712H435V634H155V712Z" />
<glyph unicode="&#x114;" glyph-name="Ebreve" horiz-adv-x="588" d="M82 715H529V610H215V414H467V314H215V105H546V0H82V715ZM316 761Q253 761 214 799T171 901H256Q260 875 274 860T316 845Q343 845 358 860T379 901H463Q461 870 449 844T418 800T372 771T316 761Z" />
<glyph unicode="&#x115;" glyph-name="ebreve" horiz-adv-x="584" d="M302 -10Q244 -10 196 8T112 61T57 145T37 256V264Q37 325 56 374T111 459T193 514T297 534Q346 534 390 519T469 472T523 390T544 270V235H161Q164 160 200 120T305 80Q360 80 389 101T425
160H542Q529 77 466 34T302 -10ZM424 316Q419 384 387 415T297 446Q242 446 207 412T163 316H424ZM287 606Q225 606 186 645T142 749H226Q230 722 244 707T287 691Q315 691 331 706T352 749H434Q432 717 420 691T389 645T343 616T287 606Z" />
<glyph unicode="&#x116;" glyph-name="Edotaccent" horiz-adv-x="588" d="M82 715H529V610H215V414H467V314H215V105H546V0H82V715ZM313 775Q283 775 263 795T242 844Q242 873 262 892T313 912Q342 912 363 893T384 844Q384 815 363 795T313 775Z" />
<glyph unicode="&#x117;" glyph-name="edotaccent" horiz-adv-x="584" d="M302 -10Q244 -10 196 8T112 61T57 145T37 256V264Q37 325 56 374T111 459T193 514T297 534Q346 534 390 519T469 472T523 390T544 270V235H161Q164 160 200 120T305 80Q360 80 389 101T425
160H542Q529 77 466 34T302 -10ZM424 316Q419 384 387 415T297 446Q242 446 207 412T163 316H424ZM295 611Q265 611 245 631T224 680Q224 709 244 728T295 748Q324 748 345 729T366 680Q366 651 345 631T295 611Z" />
<glyph unicode="&#x118;" glyph-name="Eogonek" horiz-adv-x="588" d="M459 -182Q408 -182 378 -161T348 -101Q348 -67 372 -42T429 0H82V715H529V610H215V414H467V314H215V105H546V0H514Q485 -20 471 -38T457 -76Q457 -108 492 -108Q515 -108 535 -99V-168Q522
-174 504 -178T459 -182Z" />
<glyph unicode="&#x119;" glyph-name="eogonek" horiz-adv-x="584" d="M395 -182Q345 -182 315 -161T285 -102Q285 -72 307 -48T359 -6Q346 -8 331 -9T302 -10Q244 -10 196 8T112 61T57 145T37 256V264Q37 325 56 374T111 459T193 514T297 534Q346 534 390 519T469
472T523 390T544 270V235H161Q164 160 200 120T305 80Q360 80 389 101T425 160H542Q537 131 528 110T506 72T482 43T459 22Q428 -6 409 -30T390 -77Q390 -110 425 -110Q449 -110 469 -101V-168Q455 -174 438 -178T395 -182ZM424 316Q419 384 387 415T297 446Q242
446 207 412T163 316H424Z" />
<glyph unicode="&#x11a;" glyph-name="Ecaron" horiz-adv-x="588" d="M82 715H529V610H215V414H467V314H215V105H546V0H82V715ZM153 901H241L316 846L390 901H476L366 766H261L153 901Z" />
<glyph unicode="&#x11b;" glyph-name="ecaron" horiz-adv-x="584" d="M302 -10Q244 -10 196 8T112 61T57 145T37 256V264Q37 325 56 374T111 459T193 514T297 534Q346 534 390 519T469 472T523 390T544 270V235H161Q164 160 200 120T305 80Q360 80 389 101T425
160H542Q529 77 466 34T302 -10ZM424 316Q419 384 387 415T297 446Q242 446 207 412T163 316H424ZM134 753H221L296 686L371 753H455L342 602H246L134 753Z" />
<glyph unicode="&#x11c;" glyph-name="Gcircumflex" horiz-adv-x="779" d="M403 -10Q317 -10 251 17T139 92T70 207T46 353V361Q46 441 72 508T146 623T259 699T403 726Q460 726 513 713T607 670T676 595T711 485H578Q566 557 521 589T405 621Q352 621 311 603T242
550T199 467T184 360V352Q184 295 197 248T238 166T307 113T405 94Q455 94 491 108T550 146T584 204T598 274H418V374H729V308Q729 234 707 175T642 75T540 12T403 -10ZM347 901H451L559 766H471L397 821L322 766H236L347 901Z" />
<glyph unicode="&#x11d;" glyph-name="gcircumflex" horiz-adv-x="637" d="M295 -192Q233 -192 188 -179T113 -143T65 -88T43 -18H165Q173 -57 203 -78T294 -100Q365 -100 402 -65T440 41V118Q429 99 412 82T373 51T324 29T269 21Q220 21 178 38T104 88T55 167T37
270V277Q37 332 54 379T103 460T178 514T272 534Q337 534 377 508T440 443V523H561V39Q560 -77 489 -134T295 -192ZM299 114Q362 114 403 156T444 274V281Q444 356 407 397T303 439Q235 439 198 395T161 279V271Q161 235 171 206T200 156T244 125T299 114ZM251
753H347L458 602H372L297 670L221 602H137L251 753Z" />
<glyph unicode="&#x11e;" glyph-name="Gbreve" horiz-adv-x="779" d="M403 -10Q317 -10 251 17T139 92T70 207T46 353V361Q46 441 72 508T146 623T259 699T403 726Q460 726 513 713T607 670T676 595T711 485H578Q566 557 521 589T405 621Q352 621 311 603T242
550T199 467T184 360V352Q184 295 197 248T238 166T307 113T405 94Q455 94 491 108T550 146T584 204T598 274H418V374H729V308Q729 234 707 175T642 75T540 12T403 -10ZM397 761Q334 761 295 799T252 901H337Q341 875 355 860T397 845Q424 845 439 860T460 901H544Q542
870 530 844T499 800T453 771T397 761Z" />
<glyph unicode="&#x11f;" glyph-name="gbreve" horiz-adv-x="637" d="M295 -192Q233 -192 188 -179T113 -143T65 -88T43 -18H165Q173 -57 203 -78T294 -100Q365 -100 402 -65T440 41V118Q429 99 412 82T373 51T324 29T269 21Q220 21 178 38T104 88T55 167T37 270V277Q37
332 54 379T103 460T178 514T272 534Q337 534 377 508T440 443V523H561V39Q560 -77 489 -134T295 -192ZM299 114Q362 114 403 156T444 274V281Q444 356 407 397T303 439Q235 439 198 395T161 279V271Q161 235 171 206T200 156T244 125T299 114ZM297 606Q235 606
196 645T152 749H236Q240 722 254 707T297 691Q325 691 341 706T362 749H444Q442 717 430 691T399 645T353 616T297 606Z" />
<glyph unicode="&#x120;" glyph-name="Gdotaccent" horiz-adv-x="779" d="M403 -10Q317 -10 251 17T139 92T70 207T46 353V361Q46 441 72 508T146 623T259 699T403 726Q460 726 513 713T607 670T676 595T711 485H578Q566 557 521 589T405 621Q352 621 311 603T242
550T199 467T184 360V352Q184 295 197 248T238 166T307 113T405 94Q455 94 491 108T550 146T584 204T598 274H418V374H729V308Q729 234 707 175T642 75T540 12T403 -10ZM398 775Q368 775 348 795T327 844Q327 873 347 892T398 912Q427 912 448 893T469 844Q469
815 448 795T398 775Z" />
<glyph unicode="&#x121;" glyph-name="gdotaccent" horiz-adv-x="637" d="M295 -192Q233 -192 188 -179T113 -143T65 -88T43 -18H165Q173 -57 203 -78T294 -100Q365 -100 402 -65T440 41V118Q429 99 412 82T373 51T324 29T269 21Q220 21 178 38T104 88T55 167T37
270V277Q37 332 54 379T103 460T178 514T272 534Q337 534 377 508T440 443V523H561V39Q560 -77 489 -134T295 -192ZM299 114Q362 114 403 156T444 274V281Q444 356 407 397T303 439Q235 439 198 395T161 279V271Q161 235 171 206T200 156T244 125T299 114ZM298
611Q268 611 248 631T227 680Q227 709 247 728T298 748Q327 748 348 729T369 680Q369 651 348 631T298 611Z" />
<glyph unicode="&#x122;" glyph-name="Gcommaaccent" horiz-adv-x="779" d="M403 -10Q317 -10 251 17T139 92T70 207T46 353V361Q46 441 72 508T146 623T259 699T403 726Q460 726 513 713T607 670T676 595T711 485H578Q566 557 521 589T405 621Q352 621 311 603T242
550T199 467T184 360V352Q184 295 197 248T238 166T307 113T405 94Q455 94 491 108T550 146T584 204T598 274H418V374H729V308Q729 234 707 175T642 75T540 12T403 -10ZM301 -198L353 -33L464 -55L372 -225L301 -198Z" />
<glyph unicode="&#x123;" glyph-name="gcommaaccent" horiz-adv-x="637" d="M295 -192Q233 -192 188 -179T113 -143T65 -88T43 -18H165Q173 -57 203 -78T294 -100Q365 -100 402 -65T440 41V118Q429 99 412 82T373 51T324 29T269 21Q220 21 178 38T104 88T55 167T37
270V277Q37 332 54 379T103 460T178 514T272 534Q337 534 377 508T440 443V523H561V39Q560 -77 489 -134T295 -192ZM299 114Q362 114 403 156T444 274V281Q444 356 407 397T303 439Q235 439 198 395T161 279V271Q161 235 171 206T200 156T244 125T299 114ZM244
610L336 779L406 753L355 588L244 610Z" />
<glyph unicode="&#x124;" glyph-name="Hcircumflex" horiz-adv-x="755" d="M82 715H215V411H536V715H670V0H536V304H215V0H82V715ZM324 901H428L536 766H448L374 821L299 766H213L324 901Z" />
<glyph unicode="&#x125;" glyph-name="hcircumflex" horiz-adv-x="612" d="M72 765H193V440Q212 478 254 506T362 534Q401 534 434 522T491 486T528 422T541 329V0H420V318Q420 378 395 405T316 433Q265 433 229 402T193 308V0H72V765ZM263 941H367L475 806H387L313
861L238 806H152L263 941Z" />
<glyph unicode="&#x126;" glyph-name="Hbar" horiz-adv-x="755" d="M16 582H82V715H215V582H536V715H670V582H736V504H670V0H536V304H215V0H82V504H16V582ZM536 411V504H215V411H536Z" />
<glyph unicode="&#x127;" glyph-name="hbar" horiz-adv-x="612" d="M4 679H72V765H193V679H362V604H193V440Q212 478 254 506T362 534Q401 534 434 522T491 486T528 422T541 329V0H420V318Q420 378 395 405T316 433Q265 433 229 402T193 308V0H72V604H4V679Z" />
<glyph unicode="&#x128;" glyph-name="Itilde" horiz-adv-x="311" d="M86 715H220V0H86V715ZM470 768Q452 768 437 774T407 787T381 801T358 807Q344 807 334 796T321 767H245Q250 830 281 864T354 898Q371 898 386 892T416 878T442 864T467 858Q481 858 490 869T503
898H580Q574 835 543 802T470 768Z" />
<glyph unicode="&#x129;" glyph-name="itilde" horiz-adv-x="275" d="M75 523H196V0H75V523ZM451 606Q433 606 418 612T389 625T363 639T340 646Q326 646 316 635T303 606H228Q234 669 263 703T335 737Q352 737 367 731T396 718T422 704T447 698Q461 698 470 709T483
738H558Q552 675 523 641T451 606Z" />
<glyph unicode="&#x12a;" glyph-name="Imacron" horiz-adv-x="311" d="M86 715H220V0H86V715ZM266 861H554V780H266V861Z" />
<glyph unicode="&#x12b;" glyph-name="imacron" horiz-adv-x="275" d="M28 712H242V634H28V712ZM75 523H196V0H75V523Z" />
<glyph unicode="&#x12c;" glyph-name="Ibreve" horiz-adv-x="311" d="M86 715H220V0H86V715ZM411 761Q348 761 309 799T266 901H351Q355 875 369 860T411 845Q438 845 453 860T474 901H558Q556 870 544 844T513 800T467 771T411 761Z" />
<glyph unicode="&#x12d;" glyph-name="ibreve" horiz-adv-x="275" d="M75 523H196V0H75V523ZM392 606Q330 606 291 645T247 749H331Q335 722 349 707T392 691Q420 691 436 706T457 749H539Q537 717 525 691T494 645T448 616T392 606Z" />
<glyph unicode="&#x12e;" glyph-name="Iogonek" horiz-adv-x="311" d="M155 -182Q104 -182 74 -161T43 -101Q43 -67 67 -42T124 0H86V715H220V7Q152 -34 152 -76Q152 -108 187 -108Q212 -108 230 -99V-168Q217 -174 199 -178T155 -182Z" />
<glyph unicode="&#x12f;" glyph-name="iogonek" horiz-adv-x="275" d="M134 -182Q84 -182 55 -161T25 -101Q25 -67 49 -42T106 0H75V523H196V5Q161 -18 146 -37T130 -77Q130 -110 165 -110Q190 -110 208 -101V-168Q195 -174 178 -178T134 -182ZM134 609Q104 609
83 629T62 678Q62 708 83 728T134 748Q164 748 185 728T206 678Q206 649 185 629T134 609Z" />
<glyph unicode="&#x130;" glyph-name="Idotaccent" horiz-adv-x="311" d="M86 715H220V0H86V715ZM411 775Q381 775 361 795T340 844Q340 873 360 892T411 912Q440 912 461 893T482 844Q482 815 461 795T411 775Z" />
<glyph unicode="&#x131;" glyph-name="dotlessi" horiz-adv-x="275" d="M75 523H196V0H75V523Z" />
<glyph unicode="&#x132;" glyph-name="IJ" horiz-adv-x="719" d="M86 715H220V0H86V715ZM419 -9Q374 -9 349 -3T307 12V116Q326 108 346 103T399 98Q448 98 477 126T506 220V715H640V217Q640 159 624 117T579 46T509 5T419 -9Z" />
<glyph unicode="&#x133;" glyph-name="ij" horiz-adv-x="275" d="M75 523H196V0H75V523ZM134 609Q104 609 83 629T62 678Q62 708 83 728T134 748Q164 748 185 728T206 678Q206 649 185 629T134 609ZM274 -95Q314 -92 330 -73T346 -21V523H467V-18Q467 -58 457
-89T425 -142T365 -175T274 -188V-95ZM405 609Q375 609 354 629T333 678Q333 708 354 728T405 748Q435 748 456 728T477 678Q477 649 456 629T405 609Z" />
<glyph unicode="&#x134;" glyph-name="Jcircumflex" horiz-adv-x="447" d="M148 -9Q103 -9 78 -3T36 12V116Q55 108 75 103T128 98Q177 98 206 126T235 220V715H369V217Q369 159 353 117T308 46T238 5T148 -9ZM248 901H352L460 766H372L298 821L223 766H137L248 901Z" />
<glyph unicode="&#x135;" glyph-name="jcircumflex" horiz-adv-x="275" d="M3 -95Q43 -92 59 -73T75 -21V523H196V-18Q196 -58 186 -89T154 -142T94 -175T3 -188V-95ZM345 753H441L552 602H466L391 670L315 602H231L345 753Z" />
<glyph unicode="&#x136;" glyph-name="Kcommaaccent" horiz-adv-x="663" d="M82 715H215V391L489 716H632L336 374L647 0H490L215 334V0H82V715ZM245 -198L297 -33L408 -55L316 -225L245 -198Z" />
<glyph unicode="&#x137;" glyph-name="kcommaaccent" horiz-adv-x="544" d="M72 765H193V293L380 523H512L309 283L529 0H389L193 257V0H72V765ZM185 -198L237 -33L348 -55L256 -225L185 -198Z" />
<glyph unicode="&#x139;" glyph-name="Lacute" horiz-adv-x="555" d="M82 715H215V106H520V0H82V715ZM410 901H546L447 766H356L410 901Z" />
<glyph unicode="&#x13a;" glyph-name="lacute" horiz-adv-x="275" d="M75 765H196V0H75V765ZM397 941H533L434 806H343L397 941Z" />
<glyph unicode="&#x13b;" glyph-name="Lcommaaccent" horiz-adv-x="555" d="M82 715H215V106H520V0H82V715ZM203 -198L255 -33L366 -55L274 -225L203 -198Z" />
<glyph unicode="&#x13c;" glyph-name="lcommaaccent" horiz-adv-x="275" d="M75 765H196V0H75V765ZM296 -198L348 -33L459 -55L367 -225L296 -198Z" />
<glyph unicode="&#x13d;" glyph-name="Lcaron" horiz-adv-x="555" d="M333 715H448L389 550H313L333 715ZM82 715H215V106H520V0H82V715Z" />
<glyph unicode="&#x13e;" glyph-name="lcaron" horiz-adv-x="275" d="M75 765H196V0H75V765ZM250 765H360L311 590H240L250 765Z" />
<glyph unicode="&#x13f;" glyph-name="Ldot" horiz-adv-x="565" d="M82 715H215V106H520V0H82V715ZM429 312Q396 312 373 335T350 391Q350 424 373 446T429 469Q463 469 486 447T509 391Q509 358 486 335T429 312Z" />
<glyph unicode="&#x140;" glyph-name="ldot" horiz-adv-x="382" d="M75 765H196V0H75V765ZM322 285Q289 285 266 308T243 364Q243 397 266 419T322 442Q356 442 379 420T402 364Q402 331 379 308T322 285Z" />
<glyph unicode="&#x141;" glyph-name="Lslash" horiz-adv-x="574" d="M35 326L101 349V715H235V397L426 466V382L235 313V106H540V0H101V265L35 242V326Z" />
<glyph unicode="&#x142;" glyph-name="lslash" horiz-adv-x="303" d="M19 379L89 416V765H210V480L284 520V432L210 392V0H89V328L19 291V379Z" />
<glyph unicode="&#x143;" glyph-name="Nacute" horiz-adv-x="749" d="M82 715H241L542 198V715H663V0H525L203 548V0H82V715ZM387 901H523L424 766H333L387 901Z" />
<glyph unicode="&#x144;" glyph-name="nacute" horiz-adv-x="612" d="M72 523H193V440Q212 478 254 506T362 534Q401 534 434 522T491 486T528 422T541 329V0H420V318Q420 378 395 405T316 433Q265 433 229 402T193 308V0H72V523ZM312 756H446L342 601H253L312 756Z" />
<glyph unicode="&#x145;" glyph-name="Ncommaaccent" horiz-adv-x="749" d="M82 715H241L542 198V715H663V0H525L203 548V0H82V715ZM266 -198L318 -33L429 -55L337 -225L266 -198Z" />
<glyph unicode="&#x146;" glyph-name="ncommaaccent" horiz-adv-x="612" d="M72 523H193V440Q212 478 254 506T362 534Q401 534 434 522T491 486T528 422T541 329V0H420V318Q420 378 395 405T316 433Q265 433 229 402T193 308V0H72V523ZM206 -198L258 -33L369
-55L277 -225L206 -198Z" />
<glyph unicode="&#x147;" glyph-name="Ncaron" horiz-adv-x="749" d="M82 715H241L542 198V715H663V0H525L203 548V0H82V715ZM223 901H311L386 846L460 901H546L436 766H331L223 901Z" />
<glyph unicode="&#x148;" glyph-name="ncaron" horiz-adv-x="612" d="M72 523H193V440Q212 478 254 506T362 534Q401 534 434 522T491 486T528 422T541 329V0H420V318Q420 378 395 405T316 433Q265 433 229 402T193 308V0H72V523ZM142 753H229L304 686L379 753H463L350
602H254L142 753Z" />
<glyph unicode="&#x149;" glyph-name="napostrophe" horiz-adv-x="659" d="M118 523H239V440Q258 478 300 506T408 534Q447 534 480 522T537 486T574 422T587 329V0H466V318Q466 378 441 405T362 433Q311 433 275 402T239 308V0H118V523ZM218 496L304 727L413
684L289 464L218 496Z" />
<glyph unicode="&#x14a;" glyph-name="Eng" horiz-adv-x="749" d="M448 -193Q405 -193 381 -187T339 -172V-71Q358 -79 377 -84T427 -89Q472 -89 500 -66T531 6L205 555V0H82V715H243L540 208V715H663V15Q663 -37 648 -76T604 -141T536 -180T448 -193Z" />
<glyph unicode="&#x14b;" glyph-name="eng" horiz-adv-x="612" d="M349 -95Q389 -92 404 -73T420 -21V318Q420 378 395 405T316 433Q265 433 229 402T193 308V0H72V523H193V440Q212 478 254 506T362 534Q401 534 434 522T491 486T528 422T541 329V-18Q541 -58
531 -89T499 -142T440 -175T349 -188V-95Z" />
<glyph unicode="&#x14c;" glyph-name="Omacron" horiz-adv-x="818" d="M410 97Q461 97 501 115T570 168T614 249T630 355V363Q630 418 615 465T572 546T502 599T408 619Q355 619 314 601T244 548T200 467T185 362V354Q185 295 202 248T249 167T320 115T410 97ZM408
-10Q326 -10 259 17T145 94T72 209T46 353V361Q46 439 72 506T147 621T261 697T408 725Q488 725 554 698T667 623T741 509T768 364V356Q768 278 743 211T670 95T556 18T408 -10ZM262 861H550V780H262V861Z" />
<glyph unicode="&#x14d;" glyph-name="omacron" horiz-adv-x="615" d="M306 84Q374 84 412 130T450 258V265Q450 346 412 392T306 439Q238 439 200 393T161 266V258Q161 177 199 131T306 84ZM305 -10Q247 -10 198 9T113 63T57 147T37 256V264Q37 325 57 374T114
459T199 514T306 534Q363 534 412 515T497 461T553 376T574 267V259Q574 198 554 149T497 64T412 9T305 -10ZM165 712H445V634H165V712Z" />
<glyph unicode="&#x14e;" glyph-name="Obreve" horiz-adv-x="818" d="M410 97Q461 97 501 115T570 168T614 249T630 355V363Q630 418 615 465T572 546T502 599T408 619Q355 619 314 601T244 548T200 467T185 362V354Q185 295 202 248T249 167T320 115T410 97ZM408
-10Q326 -10 259 17T145 94T72 209T46 353V361Q46 439 72 506T147 621T261 697T408 725Q488 725 554 698T667 623T741 509T768 364V356Q768 278 743 211T670 95T556 18T408 -10ZM405 761Q342 761 303 799T260 901H345Q349 875 363 860T405 845Q432 845 447 860T468
901H552Q550 870 538 844T507 800T461 771T405 761Z" />
<glyph unicode="&#x14f;" glyph-name="obreve" horiz-adv-x="615" d="M306 84Q374 84 412 130T450 258V265Q450 346 412 392T306 439Q238 439 200 393T161 266V258Q161 177 199 131T306 84ZM305 -10Q247 -10 198 9T113 63T57 147T37 256V264Q37 325 57 374T114
459T199 514T306 534Q363 534 412 515T497 461T553 376T574 267V259Q574 198 554 149T497 64T412 9T305 -10ZM304 606Q242 606 203 645T159 749H243Q247 722 261 707T304 691Q332 691 348 706T369 749H451Q449 717 437 691T406 645T360 616T304 606Z" />
<glyph unicode="&#x150;" glyph-name="Ohungarumlaut" horiz-adv-x="818" d="M410 97Q461 97 501 115T570 168T614 249T630 355V363Q630 418 615 465T572 546T502 599T408 619Q355 619 314 601T244 548T200 467T185 362V354Q185 295 202 248T249 167T320 115T410
97ZM408 -10Q326 -10 259 17T145 94T72 209T46 353V361Q46 439 72 506T147 621T261 697T408 725Q488 725 554 698T667 623T741 509T768 364V356Q768 278 743 211T670 95T556 18T408 -10ZM310 901H428L355 766H272L310 901ZM480 901H598L525 766H442L480 901Z" />
<glyph unicode="&#x151;" glyph-name="ohungarumlaut" horiz-adv-x="615" d="M306 84Q374 84 412 130T450 258V265Q450 346 412 392T306 439Q238 439 200 393T161 266V258Q161 177 199 131T306 84ZM305 -10Q247 -10 198 9T113 63T57 147T37 256V264Q37 325 57
374T114 459T199 514T306 534Q363 534 412 515T497 461T553 376T574 267V259Q574 198 554 149T497 64T412 9T305 -10ZM218 756H331L255 601H177L218 756ZM381 756H494L418 601H340L381 756Z" />
<glyph unicode="&#x152;" glyph-name="OE" horiz-adv-x="968" d="M46 359Q46 437 69 502T138 615T253 688T417 715H910V610H611V414H847V314H611V105H927V0H415Q322 0 253 25T138 97T69 207T46 350V359ZM420 610Q300 610 243 545T185 360V352Q185 294 198 249T240
171T314 122T422 105H478V610H420Z" />
<glyph unicode="&#x153;" glyph-name="oe" horiz-adv-x="995" d="M305 -10Q247 -10 198 9T113 63T57 147T37 256V264Q37 325 57 374T114 459T199 514T306 534Q374 534 426 507T510 431Q542 480 592 507T708 534Q757 534 801 519T880 472T935 390T956 270V235H572Q575
160 611 120T717 80Q771 80 800 101T837 160H953Q940 77 877 34T714 -10Q645 -10 593 16T509 92Q477 43 425 17T305 -10ZM306 84Q374 84 412 131T450 257V265Q450 346 412 392T306 439Q238 439 200 393T161 266V258Q161 177 199 131T306 84ZM835 316Q830 384 798
415T708 446Q654 446 619 412T574 316H835Z" />
<glyph unicode="&#x154;" glyph-name="Racute" horiz-adv-x="659" d="M82 715H322Q381 715 430 703T514 665T569 600T589 505V501Q589 459 577 427T543 372T492 333T430 309L631 0H487L300 289H215V0H82V715ZM322 384Q458 384 458 498V502Q458 564 422 588T322
612H215V384H322ZM322 901H458L359 766H268L322 901Z" />
<glyph unicode="&#x155;" glyph-name="racute" horiz-adv-x="401" d="M72 523H193V425Q218 475 257 502T363 531V418Q323 418 292 411T238 386T205 342T193 272V0H72V523ZM225 756H359L255 601H166L225 756Z" />
<glyph unicode="&#x156;" glyph-name="Rcommaaccent" horiz-adv-x="659" d="M82 715H322Q381 715 430 703T514 665T569 600T589 505V501Q589 459 577 427T543 372T492 333T430 309L631 0H487L300 289H215V0H82V715ZM322 384Q458 384 458 498V502Q458 564 422 588T322
612H215V384H322ZM235 -198L287 -33L398 -55L306 -225L235 -198Z" />
<glyph unicode="&#x157;" glyph-name="rcommaaccent" horiz-adv-x="401" d="M72 523H193V425Q218 475 257 502T363 531V418Q323 418 292 411T238 386T205 342T193 272V0H72V523ZM292 -198L344 -33L455 -55L363 -225L292 -198Z" />
<glyph unicode="&#x158;" glyph-name="Rcaron" horiz-adv-x="659" d="M82 715H322Q381 715 430 703T514 665T569 600T589 505V501Q589 459 577 427T543 372T492 333T430 309L631 0H487L300 289H215V0H82V715ZM322 384Q458 384 458 498V502Q458 564 422 588T322
612H215V384H322ZM158 901H246L321 846L395 901H481L371 766H266L158 901Z" />
<glyph unicode="&#x159;" glyph-name="rcaron" horiz-adv-x="401" d="M72 523H193V425Q218 475 257 502T363 531V418Q323 418 292 411T238 386T205 342T193 272V0H72V523ZM55 753H142L217 686L292 753H376L263 602H167L55 753Z" />
<glyph unicode="&#x15a;" glyph-name="Sacute" horiz-adv-x="639" d="M325 -10Q252 -10 200 7T113 55T60 128T38 222H166Q169 195 177 171T203 129T250 101T325 90Q385 90 422 120T460 200Q460 225 453 242T429 272T383 294T311 310Q247 319 200 333T121 372T75
433T59 519Q59 563 77 600T127 665T206 708T308 724Q424 724 490 672T568 517H446Q436 574 403 599T308 624Q247 624 216 598T185 530Q185 508 190 492T212 463T257 441T333 425Q396 416 443 402T523 363T572 302T588 211Q588 164 569 124T516 54T433 7T325 -10ZM311
901H447L348 766H257L311 901Z" />
<glyph unicode="&#x15b;" glyph-name="sacute" horiz-adv-x="498" d="M251 -10Q149 -10 93 34T32 163H146Q151 123 173 101T250 79Q299 79 321 96T344 146Q344 178 317 193T232 218Q180 226 144 238T86 269T53 314T43 377Q43 416 60 445T104 494T167 524T239 534Q279
534 314 526T377 500T421 451T444 376H332Q324 412 303 429T239 446Q200 446 178 429T156 384Q156 370 161 360T178 342T212 328T264 317Q310 310 346 300T408 272T446 227T460 157Q460 77 406 34T251 -10ZM254 756H388L284 601H195L254 756Z" />
<glyph unicode="&#x15c;" glyph-name="Scircumflex" horiz-adv-x="639" d="M325 -10Q252 -10 200 7T113 55T60 128T38 222H166Q169 195 177 171T203 129T250 101T325 90Q385 90 422 120T460 200Q460 225 453 242T429 272T383 294T311 310Q247 319 200 333T121
372T75 433T59 519Q59 563 77 600T127 665T206 708T308 724Q424 724 490 672T568 517H446Q436 574 403 599T308 624Q247 624 216 598T185 530Q185 508 190 492T212 463T257 441T333 425Q396 416 443 402T523 363T572 302T588 211Q588 164 569 124T516 54T433 7T325
-10ZM258 901H362L470 766H382L308 821L233 766H147L258 901Z" />
<glyph unicode="&#x15d;" glyph-name="scircumflex" horiz-adv-x="498" d="M251 -10Q149 -10 93 34T32 163H146Q151 123 173 101T250 79Q299 79 321 96T344 146Q344 178 317 193T232 218Q180 226 144 238T86 269T53 314T43 377Q43 416 60 445T104 494T167 524T239
534Q279 534 314 526T377 500T421 451T444 376H332Q324 412 303 429T239 446Q200 446 178 429T156 384Q156 370 161 360T178 342T212 328T264 317Q310 310 346 300T408 272T446 227T460 157Q460 77 406 34T251 -10ZM197 753H293L404 602H318L243 670L167 602H83L197
753Z" />
<glyph unicode="&#x15e;" glyph-name="Scedilla" horiz-adv-x="639" d="M295 -219Q247 -219 219 -196T185 -131H251Q253 -144 263 -154T291 -164Q308 -164 318 -155T328 -130Q328 -116 319 -107T293 -98Q282 -98 275 -101T263 -107L229 -75L269 -7Q211 -1 169
18T99 68T56 137T38 222H166Q169 195 177 171T203 129T250 101T325 90Q385 90 422 120T460 200Q460 225 453 242T429 272T383 294T311 310Q247 319 200 333T121 372T75 433T59 519Q59 563 77 600T127 665T206 708T308 724Q424 724 490 672T568 517H446Q436 574
403 599T308 624Q247 624 216 598T185 530Q185 508 190 492T212 463T257 441T333 425Q396 416 443 402T523 363T572 302T588 211Q588 164 570 124T517 55T434 8T327 -10L304 -50Q323 -48 341 -51T373 -65T395 -92T404 -133Q404 -175 373 -197T295 -219Z" />
<glyph unicode="&#x15f;" glyph-name="scedilla" horiz-adv-x="498" d="M232 -219Q184 -219 156 -196T122 -131H188Q190 -144 200 -154T228 -164Q245 -164 255 -155T265 -130Q265 -116 256 -107T230 -98Q219 -98 212 -101T200 -107L166 -75L205 -7Q124 2 80 45T32
163H146Q151 123 173 101T250 79Q299 79 321 96T344 146Q344 178 317 193T232 218Q180 226 144 238T86 269T53 314T43 377Q43 416 60 445T104 494T167 524T239 534Q279 534 314 526T377 500T421 451T444 376H332Q324 412 303 429T239 446Q200 446 178 429T156 384Q156
370 161 360T178 342T212 328T264 317Q310 310 346 300T408 272T446 227T460 157Q460 79 410 36T264 -10L241 -50Q260 -48 278 -51T310 -65T332 -92T341 -133Q341 -175 310 -197T232 -219Z" />
<glyph unicode="&#x160;" glyph-name="Scaron" horiz-adv-x="639" d="M325 -10Q252 -10 200 7T113 55T60 128T38 222H166Q169 195 177 171T203 129T250 101T325 90Q385 90 422 120T460 200Q460 225 453 242T429 272T383 294T311 310Q247 319 200 333T121 372T75
433T59 519Q59 563 77 600T127 665T206 708T308 724Q424 724 490 672T568 517H446Q436 574 403 599T308 624Q247 624 216 598T185 530Q185 508 190 492T212 463T257 441T333 425Q396 416 443 402T523 363T572 302T588 211Q588 164 569 124T516 54T433 7T325 -10ZM147
901H235L310 846L384 901H470L360 766H255L147 901Z" />
<glyph unicode="&#x161;" glyph-name="scaron" horiz-adv-x="498" d="M251 -10Q149 -10 93 34T32 163H146Q151 123 173 101T250 79Q299 79 321 96T344 146Q344 178 317 193T232 218Q180 226 144 238T86 269T53 314T43 377Q43 416 60 445T104 494T167 524T239 534Q279
534 314 526T377 500T421 451T444 376H332Q324 412 303 429T239 446Q200 446 178 429T156 384Q156 370 161 360T178 342T212 328T264 317Q310 310 346 300T408 272T446 227T460 157Q460 77 406 34T251 -10ZM82 753H169L244 686L319 753H403L290 602H194L82 753Z"
/>
<glyph unicode="&#x162;" glyph-name="Tcommaaccent" horiz-adv-x="588" d="M225 610H26V715H558V610H359V0H225V610ZM194 -198L246 -33L357 -55L265 -225L194 -198Z" />
<glyph unicode="&#x163;" glyph-name="tcommaaccent" horiz-adv-x="373" d="M250 -9Q172 -9 132 31T92 146V432H22V523H92V638H213V523H328V432H213V157Q213 122 228 106T273 90Q308 90 332 100V4Q318 -1 298 -5T250 -9ZM359 -198L411 -33L522 -55L430 -225L359 -198Z" />
<glyph unicode="&#x164;" glyph-name="Tcaron" horiz-adv-x="587" d="M225 610H26V715H558V610H359V0H225V610ZM129 901H217L292 846L366 901H452L342 766H237L129 901Z" />
<glyph unicode="&#x165;" glyph-name="tcaron" horiz-adv-x="373" d="M250 -9Q172 -9 132 31T92 146V432H22V523H92V638H213V523H328V432H213V157Q213 122 228 106T273 90Q308 90 332 100V4Q318 -1 298 -5T250 -9ZM285 765H395L346 590H275L285 765Z" />
<glyph unicode="&#x166;" glyph-name="Tbar" horiz-adv-x="587" d="M87 405H225V610H26V715H558V610H359V405H496V315H359V0H225V315H87V405Z" />
<glyph unicode="&#x167;" glyph-name="tbar" horiz-adv-x="373" d="M22 336H92V433H22V523H92V638H213V523H327V433H213V336H327V261H213V157Q213 89 273 89Q291 89 305 92T332 100V4Q318 -1 298 -5T250 -9Q172 -9 132 31T92 146V261H22V336Z" />
<glyph unicode="&#x168;" glyph-name="Utilde" horiz-adv-x="727" d="M357 -10Q222 -10 149 61T76 272V715H210V282Q210 183 244 140T358 97Q397 97 426 106T474 138T503 198T513 291V715H647V280Q647 139 574 65T357 -10ZM418 768Q400 768 385 774T355 787T329
801T306 807Q292 807 282 796T269 767H193Q198 830 229 864T302 898Q319 898 334 892T364 878T390 864T415 858Q429 858 438 869T451 898H528Q522 835 491 802T418 768Z" />
<glyph unicode="&#x169;" glyph-name="utilde" horiz-adv-x="609" d="M247 -10Q208 -10 175 1T118 37T81 98T67 188V523H188V202Q188 142 213 115T291 87Q315 87 337 95T376 118T403 157T413 212V523H534V0H413V82Q393 44 352 17T247 -10ZM360 606Q342 606 327
612T298 625T272 639T249 646Q235 646 225 635T212 606H137Q143 669 172 703T244 737Q261 737 276 731T305 718T331 704T356 698Q370 698 379 709T392 738H467Q461 675 432 641T360 606Z" />
<glyph unicode="&#x16a;" glyph-name="Umacron" horiz-adv-x="727" d="M357 -10Q222 -10 149 61T76 272V715H210V282Q210 183 244 140T358 97Q397 97 426 106T474 138T503 198T513 291V715H647V280Q647 139 574 65T357 -10ZM216 861H504V780H216V861Z" />
<glyph unicode="&#x16b;" glyph-name="umacron" horiz-adv-x="609" d="M247 -10Q208 -10 175 1T118 37T81 98T67 188V523H188V202Q188 142 213 115T291 87Q315 87 337 95T376 118T403 157T413 212V523H534V0H413V82Q393 44 352 17T247 -10ZM162 712H442V634H162V712Z" />
<glyph unicode="&#x16c;" glyph-name="Ubreve" horiz-adv-x="727" d="M357 -10Q222 -10 149 61T76 272V715H210V282Q210 183 244 140T358 97Q397 97 426 106T474 138T503 198T513 291V715H647V280Q647 139 574 65T357 -10ZM359 761Q296 761 257 799T214 901H299Q303
875 317 860T359 845Q386 845 401 860T422 901H506Q504 870 492 844T461 800T415 771T359 761Z" />
<glyph unicode="&#x16d;" glyph-name="ubreve" horiz-adv-x="609" d="M247 -10Q208 -10 175 1T118 37T81 98T67 188V523H188V202Q188 142 213 115T291 87Q315 87 337 95T376 118T403 157T413 212V523H534V0H413V82Q393 44 352 17T247 -10ZM301 606Q239 606 200
645T156 749H240Q244 722 258 707T301 691Q329 691 345 706T366 749H448Q446 717 434 691T403 645T357 616T301 606Z" />
<glyph unicode="&#x16e;" glyph-name="Uring" horiz-adv-x="727" d="M357 -10Q222 -10 149 61T76 272V715H210V282Q210 183 244 140T358 97Q397 97 426 106T474 138T503 198T513 291V715H647V280Q647 139 574 65T357 -10ZM360 788Q382 788 396 803T410 843Q410
867 396 882T360 898Q337 898 324 883T310 843Q310 819 323 804T360 788ZM360 734Q337 734 317 742T281 766T257 800T248 843Q248 865 257 885T281 920T316 943T360 952Q383 952 403 944T439 920T463 885T472 843Q472 820 463 801T439 766T404 743T360 734Z" />
<glyph unicode="&#x16f;" glyph-name="uring" horiz-adv-x="609" d="M247 -10Q208 -10 175 1T118 37T81 98T67 188V523H188V202Q188 142 213 115T291 87Q315 87 337 95T376 118T403 157T413 212V523H534V0H413V82Q393 44 352 17T247 -10ZM299 873Q321 873 335
889T349 928Q349 952 335 967T299 983Q277 983 263 968T249 928Q249 905 263 889T299 873ZM299 820Q276 820 256 828T221 852T197 886T188 928Q188 950 197 969T221 1004T256 1027T299 1036Q322 1036 342 1028T377 1004T401 970T410 928Q410 906 401 887T377 852T342
829T299 820Z" />
<glyph unicode="&#x170;" glyph-name="Uhungarumlaut" horiz-adv-x="727" d="M357 -10Q222 -10 149 61T76 272V715H210V282Q210 183 244 140T358 97Q397 97 426 106T474 138T503 198T513 291V715H647V280Q647 139 574 65T357 -10ZM264 901H382L309 766H226L264
901ZM434 901H552L479 766H396L434 901Z" />
<glyph unicode="&#x171;" glyph-name="uhungarumlaut" horiz-adv-x="609" d="M247 -10Q208 -10 175 1T118 37T81 98T67 188V523H188V202Q188 142 213 115T291 87Q315 87 337 95T376 118T403 157T413 212V523H534V0H413V82Q393 44 352 17T247 -10ZM215 756H328L252
601H174L215 756ZM378 756H491L415 601H337L378 756Z" />
<glyph unicode="&#x172;" glyph-name="Uogonek" horiz-adv-x="727" d="M398 -182Q348 -182 318 -161T288 -102Q288 -73 306 -50T351 -10Q219 -9 148 63T76 272V715H210V282Q210 183 244 140T358 97Q397 97 426 106T474 138T503 198T513 291V715H647V280Q647 180
610 115T505 18Q482 7 463 -2T428 -22T405 -46T396 -75Q396 -108 431 -108Q456 -108 474 -99V-168Q461 -174 443 -178T398 -182Z" />
<glyph unicode="&#x173;" glyph-name="uogonek" horiz-adv-x="609" d="M469 -182Q420 -182 390 -161T360 -101Q360 -67 385 -42T442 0H413V82Q393 44 352 17T247 -10Q208 -10 175 1T118 37T81 98T67 188V523H188V202Q188 142 213 115T291 87Q315 87 337 95T376
118T403 157T413 212V523H534V8Q497 -17 482 -37T466 -77Q466 -110 501 -110Q526 -110 544 -101V-168Q531 -174 513 -178T469 -182Z" />
<glyph unicode="&#x174;" glyph-name="Wcircumflex" horiz-adv-x="959" d="M26 715H162L286 190L425 715H535L677 187L805 715H929L750 0H617L476 521L331 0H204L26 715ZM426 901H530L638 766H550L476 821L401 766H315L426 901Z" />
<glyph unicode="&#x175;" glyph-name="wcircumflex" horiz-adv-x="818" d="M20 523H149L253 145L364 523H465L567 145L676 523H794L630 0H507L410 352L304 0H180L20 523ZM359 753H455L566 602H480L405 670L329 602H245L359 753Z" />
<glyph unicode="&#x176;" glyph-name="Ycircumflex" horiz-adv-x="633" d="M254 310L17 715H164L325 419L482 715H612L388 309V0H254V310ZM266 901H370L478 766H390L316 821L241 766H155L266 901Z" />
<glyph unicode="&#x177;" glyph-name="ycircumflex" horiz-adv-x="557" d="M225 53L18 523H149L288 186L416 523H534L249 -179H130L225 53ZM232 753H328L439 602H353L278 670L202 602H118L232 753Z" />
<glyph unicode="&#x178;" glyph-name="Ydieresis" horiz-adv-x="633" d="M254 310L17 715H164L325 419L482 715H612L388 309V0H254V310ZM211 777Q184 777 165 796T145 842Q145 869 164 888T211 907Q238 907 257 888T277 842Q277 815 258 796T211 777ZM422 777Q395
777 376 796T356 842Q356 869 375 888T422 907Q449 907 468 888T488 842Q488 815 469 796T422 777Z" />
<glyph unicode="&#x179;" glyph-name="Zacute" horiz-adv-x="612" d="M22 18L387 610H59V715H575V698L218 107H565V0H22V18ZM307 901H443L344 766H253L307 901Z" />
<glyph unicode="&#x17a;" glyph-name="zacute" horiz-adv-x="497" d="M17 14L294 427H44V523H473V506L197 97H465V0H17V14ZM261 756H395L291 601H202L261 756Z" />
<glyph unicode="&#x17b;" glyph-name="Zdotaccent" horiz-adv-x="612" d="M22 18L387 610H59V715H575V698L218 107H565V0H22V18ZM305 775Q275 775 255 795T234 844Q234 873 254 892T305 912Q334 912 355 893T376 844Q376 815 355 795T305 775Z" />
<glyph unicode="&#x17c;" glyph-name="zdotaccent" horiz-adv-x="497" d="M17 14L294 427H44V523H473V506L197 97H465V0H17V14ZM253 611Q223 611 203 631T182 680Q182 709 202 728T253 748Q282 748 303 729T324 680Q324 651 303 631T253 611Z" />
<glyph unicode="&#x17d;" glyph-name="Zcaron" horiz-adv-x="612" d="M22 18L387 610H59V715H575V698L218 107H565V0H22V18ZM143 901H231L306 846L380 901H466L356 766H251L143 901Z" />
<glyph unicode="&#x17e;" glyph-name="zcaron" horiz-adv-x="497" d="M17 14L294 427H44V523H473V506L197 97H465V0H17V14ZM91 753H178L253 686L328 753H412L299 602H203L91 753Z" />
<glyph unicode="&#x192;" glyph-name="florin" horiz-adv-x="421" d="M27 414H121L142 555Q155 642 203 683T331 724Q354 724 370 722T403 713V618Q392 623 378 625T343 628Q305 628 286 606T261 546L241 414H366V324H228L153 -182H33L108 324H27V414Z" />
<glyph unicode="&#x1fa;" glyph-name="Aringacute" horiz-adv-x="707" d="M266 715H440L676 0H538L481 177H208L152 0H27L266 715ZM239 274H450L345 606L239 274ZM356 801Q378 801 392 816T406 856Q406 880 392 895T356 911Q333 911 320 896T306 856Q306 832 319
817T356 801ZM356 747Q333 747 313 755T277 779T253 813T244 856Q244 878 253 898T277 933T312 956T356 965Q379 965 399 957T435 933T459 898T468 856Q468 833 459 814T435 779T400 756T356 747ZM363 1123H499L400 988H309L363 1123Z" />
<glyph unicode="&#x1fb;" glyph-name="aringacute" horiz-adv-x="559" d="M209 -10Q173 -10 141 -1T86 26T48 74T34 145Q34 191 55 222T112 273T197 302T302 311H367V338Q367 391 347 417T272 443Q224 443 201 422T172 361H55Q59 407 78 439T127 493T196 524T279
534Q323 534 361 525T427 493T472 434T488 343V0H369V64Q343 30 306 10T209 -10ZM238 77Q294 77 330 104T367 183V235H305Q236 235 195 217T154 150Q154 117 173 97T238 77ZM280 886Q302 886 316 902T330 941Q330 965 316 980T280 996Q258 996 244 981T230 941Q230
918 244 902T280 886ZM280 833Q257 833 237 841T202 865T178 899T169 941Q169 963 178 982T202 1017T237 1040T280 1049Q303 1049 323 1041T358 1017T382 983T391 941Q391 919 382 900T358 865T323 842T280 833ZM294 963H430L331 828H240L294 963Z" />
<glyph unicode="&#x1fc;" glyph-name="AEacute" horiz-adv-x="975" d="M373 715H916V610H604V414H854V314H604V105H933V0H471V183H239L152 0H22L373 715ZM285 278H471V610H444L285 278ZM613 901H749L650 766H559L613 901Z" />
<glyph unicode="&#x1fd;" glyph-name="aeacute" horiz-adv-x="895" d="M620 -10Q552 -10 502 16T421 90Q386 39 339 15T216 -10Q178 -10 145 -1T87 26T48 74T34 145Q34 191 54 223T111 275T195 303T300 312H368V338Q368 391 346 417T273 443Q181 443 172 361H55Q59
407 78 439T126 493T194 524T276 534Q333 534 375 517T442 458Q473 494 516 514T615 534Q662 534 705 520T782 473T836 391T856 268V235H484Q487 162 521 121T621 80Q674 80 702 101T737 160H853Q840 77 779 34T620 -10ZM239 77Q296 77 332 104T368 183V234H303Q235
234 195 217T154 152Q154 117 173 97T239 77ZM736 312Q731 383 700 414T615 446Q562 446 528 411T486 312H736ZM463 756H597L493 601H404L463 756Z" />
<glyph unicode="&#x1fe;" glyph-name="Oslashacute" horiz-adv-x="818" d="M34 18L125 116Q87 164 67 224T46 353V361Q46 439 72 505T147 620T261 696T408 724Q472 724 527 707T627 657L705 741L755 691L680 610Q722 562 745 500T769 364V356Q769 278 743 211T670
95T556 18T408 -10Q338 -10 280 10T176 66L84 -33L34 18ZM409 97Q460 97 501 115T571 168T615 249T631 356V364Q631 455 594 518L258 154Q318 97 409 97ZM184 354Q184 272 215 213L548 572Q492 619 408 619Q355 619 314 601T243 548T199 467T184 362V354ZM409 901H545L446
766H355L409 901Z" />
<glyph unicode="&#x1ff;" glyph-name="oslashacute" horiz-adv-x="615" d="M22 4L95 83Q67 117 52 160T37 256V264Q37 325 57 374T114 459T199 514T306 534Q397 534 465 486L532 559L579 517L512 444Q541 410 557 366T574 267V259Q574 198 554 149T497 64T412
9T305 -10Q257 -10 216 3T141 40L69 -38L22 4ZM306 84Q375 84 413 130T451 257V265Q451 319 433 358L211 117Q247 84 306 84ZM161 258Q161 210 175 171L395 410Q357 440 306 440Q238 440 200 394T161 266V258ZM313 756H447L343 601H254L313 756Z" />
<glyph unicode="&#x218;" glyph-name="Scommaaccent" horiz-adv-x="640" d="M325 -10Q252 -10 200 7T113 55T60 128T38 222H166Q169 195 177 171T203 129T250 101T325 90Q385 90 422 120T460 200Q460 225 453 242T429 272T383 294T311 310Q247 319 200 333T121
372T75 433T59 519Q59 563 77 600T127 665T206 708T308 724Q424 724 490 672T568 517H446Q436 574 403 599T308 624Q247 624 216 598T185 530Q185 508 190 492T212 463T257 441T333 425Q396 416 443 402T523 363T572 302T588 211Q588 164 569 124T516 54T433 7T325
-10ZM212 -198L264 -33L375 -55L283 -225L212 -198Z" />
<glyph unicode="&#x219;" glyph-name="scommaaccent" horiz-adv-x="498" d="M251 -10Q149 -10 93 34T32 163H146Q151 123 173 101T250 79Q299 79 321 96T344 146Q344 178 317 193T232 218Q180 226 144 238T86 269T53 314T43 377Q43 416 60 445T104 494T167 524T239
534Q279 534 314 526T377 500T421 451T444 376H332Q324 412 303 429T239 446Q200 446 178 429T156 384Q156 370 161 360T178 342T212 328T264 317Q310 310 346 300T408 272T446 227T460 157Q460 77 406 34T251 -10ZM147 -198L199 -33L310 -55L218 -225L147 -198Z"
/>
<glyph unicode="&#x21a;" glyph-name="uni021A" horiz-adv-x="588" d="M225 610H26V715H558V610H359V0H225V610ZM194 -198L246 -33L357 -55L265 -225L194 -198Z" />
<glyph unicode="&#x21b;" glyph-name="uni021B" horiz-adv-x="373" d="M250 -9Q172 -9 132 31T92 146V432H22V523H92V638H213V523H328V432H213V157Q213 122 228 106T273 90Q308 90 332 100V4Q318 -1 298 -5T250 -9ZM359 -198L411 -33L522 -55L430 -225L359 -198Z" />
<glyph unicode="&#x237;" glyph-name="uni0237" horiz-adv-x="275" d="M3 -95Q43 -92 59 -73T75 -21V523H196V-18Q196 -58 186 -89T154 -142T94 -175T3 -188V-95Z" />
<glyph unicode="&#x2c6;" glyph-name="circumflex" horiz-adv-x="404" d="M153 753H249L360 602H274L199 670L123 602H39L153 753Z" />
<glyph unicode="&#x2c7;" glyph-name="caron" horiz-adv-x="404" d="M39 753H126L201 686L276 753H360L247 602H151L39 753Z" />
<glyph unicode="&#x2d8;" glyph-name="breve" horiz-adv-x="404" d="M199 606Q137 606 98 645T54 749H138Q142 722 156 707T199 691Q227 691 243 706T264 749H346Q344 717 332 691T301 645T255 616T199 606Z" />
<glyph unicode="&#x2d9;" glyph-name="dotaccent" horiz-adv-x="404" d="M200 611Q170 611 150 631T129 680Q129 709 149 728T200 748Q229 748 250 729T271 680Q271 651 250 631T200 611Z" />
<glyph unicode="&#x2da;" glyph-name="ring" horiz-adv-x="404" d="M200 643Q222 643 236 659T250 698Q250 722 236 737T200 753Q178 753 164 738T150 698Q150 675 164 659T200 643ZM200 590Q177 590 157 598T122 622T98 656T89 698Q89 720 98 739T122 774T157
797T200 806Q223 806 243 798T278 774T302 740T311 698Q311 676 302 657T278 622T243 599T200 590Z" />
<glyph unicode="&#x2db;" glyph-name="ogonek" horiz-adv-x="404" d="M213 -182Q165 -182 135 -162T104 -103Q104 -68 129 -42T186 0H268Q239 -20 225 -38T210 -77Q210 -110 245 -110Q270 -110 288 -101V-168Q275 -174 257 -178T213 -182Z" />
<glyph unicode="&#x2dc;" glyph-name="tilde" horiz-adv-x="404" d="M258 606Q240 606 225 612T196 625T170 639T147 646Q133 646 123 635T110 606H35Q41 669 70 703T142 737Q159 737 174 731T203 718T229 704T254 698Q268 698 277 709T290 738H365Q359 675 330
641T258 606Z" />
<glyph unicode="&#x2dd;" glyph-name="hungarumlaut" horiz-adv-x="404" d="M121 756H234L158 601H80L121 756ZM284 756H397L321 601H243L284 756Z" />
</font>
</defs>
</svg>
